[ Сегодня идет свободное скачивание без начисления Download ]


Статистика раздачи
Нет
 
   
 
Top  
 
 
Просто добавь воды / Just Add Water Информация о фильме
Название: Просто добавь воды
Оригинальное название: Just Add Water
Год выхода: 2007
Жанр: Мелодрама, комедия
Режиссер: Харт Бокнер
В ролях: Дилан Уолш, Джона Хилл, Джастин Лонг, Дэнни ДеВито, Брэд Хант, Мелисса МакКарти, Уилл Ротхаар, Джои Керн, Аника Нони Роуз
О фильме:
Рей Такби всю свою жизнь прожил в маленьком провинциальном городке в Калифорнии. Со временем его мечты и надежды угасли, превратив его жизнь в безрадостное существование. Но вот однажды судьба сводит его с удивительным незнакомцем — Мерл, веселый неунывающий человек, меняет жизнь Рея и всего городка навсегда. В жизни Такби снова возникает луч надежды. Рей решает все изменить — вернуть своих старых друзей и завоевать сердце самой прекрасной девушки в городе.
Страна: США
Студия: Bleeding Hart Films, Morningstar Films
Продолжительность: 01:30:37
Перевод: Профессиональный многоголосый (R5)
Файл
Кодек: x264
Качество: BDRip 720p
Видео: MPEG-4 AVC, 6000 Кбит/с, 1280x720, 23.976 кадр/с
Аудио #1: AC3, 6 ch, 448 Кбит/с | Русский
Аудио #2: AC3, 6 ch, 448 Кбит/с | Английский

MediaInfo

Общее
Уникальный идентификатор : 182315401836433206934352023761831236279 (0x8928AB4EDAD034EF878937DC190A92B7)
Полное имя : Just.Add.Water.2007.BDRip.720p.mkv
Формат : Matroska
Версия формата : Version 4 / Version 2
Размер файла : 4,37 Гбайт
Продолжительность : 1 ч. 30 м.
Общий поток : 6896 Кбит/сек
Название фильма : Just Add Water
Режиссёр : Hart Bochner
Дата кодирования : UTC 2016-06-21 17:46:20
Программа кодирования : mkvmerge v7.7.0 ('Six Voices') 32bit built on Feb 28 2015 23:23:00
Библиотека кодирования : libebml v1.3.1 + libmatroska v1.4.2
Attachements : cover.jpg
Release : Koenig
DURATION : 01:30:38.720000000
NUMBER_OF_FRAMES : 169960
NUMBER_OF_BYTES : 304568320
_STATISTICS_WRITING_APP : mkvmerge v7.7.0 ('Six Voices') 32bit built on Feb 28 2015 23:23:00
_STATISTICS_WRITING_DATE_UTC : 2016-06-21 17:46:20
_STATISTICS_TAGS : BPS DURATION NUMBER_OF_FRAMES NUMBER_OF_BYTES
Видео
Идентификатор : 1
Формат : AVC
Формат/Информация : Advanced Video Codec
Профиль формата : High@L4.1
Параметр CABAC формата : Да
Параметр ReFrames формата : 9 кадров
Идентификатор кодека : V_MPEG4/ISO/AVC
Продолжительность : 1 ч. 30 м.
Битрейт : 6003 Кбит/сек
Ширина : 1280 пикселей
Высота : 720 пикселей
Соотношение сторон : 16:9
Режим частоты кадров : Постоянный
Частота кадров : 23,976 кадра/сек
Цветовое пространство : YUV
Субдискретизация насыщенности : 4:2:0
Битовая глубина : 8 бит
Тип развёртки : Прогрессивная
Бит/(Пиксели*Кадры) : 0.272
Размер потока : 3,71 Гбайт (85%)
Библиотека кодирования : x264 core 146 r2538 121396c
Настройки программы : cabac=1 / ref=9 / deblock=1:-3:-3 / analyse=0x3:0x133 / me=umh / subme=10 / psy=1 / psy_rd=1.10:0.00 / mixed_ref=1 / me_range=32 / chroma_me=1 / trellis=2 / 8x8dct=1 / cqm=0 / deadzone=21,11 / fast_pskip=0 / chroma_qp_offset=-2 / threads=3 / lookahead_threads=1 / sliced_threads=0 / nr=0 / decimate=1 / interlaced=0 / bluray_compat=0 / constrained_intra=0 / bframes=11 / b_pyramid=2 / b_adapt=2 / b_bias=0 / direct=3 / weightb=1 / open_gop=0 / weightp=2 / keyint=240 / keyint_min=23 / scenecut=40 / intra_refresh=0 / rc_lookahead=40 / rc=2pass / mbtree=1 / bitrate=6003 / ratetol=1.0 / qcomp=0.60 / qpmin=10 / qpmax=51 / qpstep=4 / cplxblur=20.0 / qblur=0.5 / vbv_maxrate=50000 / vbv_bufsize=62500 / nal_hrd=none / filler=0 / ip_ratio=1.40 / aq=1:1.00
Default : Да
Forced : Нет
Аудио #1
Идентификатор : 2
Формат : AC-3
Формат/Информация : Audio Coding 3
Расширение режима : CM (complete main)
Параметр Endianness формата : Big
Идентификатор кодека : A_AC3
Продолжительность : 1 ч. 30 м.
Вид битрейта : Постоянный
Битрейт : 448 Кбит/сек
Каналы : 6 каналов
Расположение каналов : Front: L C R, Side: L R, LFE
Частота : 48,0 КГц
Метод сжатия : С потерями
Размер потока : 290 Мбайт (6%)
Заголовок : MVO - R5
Язык : Russian
Default : Да
Forced : Нет
Аудио #2
Идентификатор : 3
Формат : AC-3
Формат/Информация : Audio Coding 3
Расширение режима : CM (complete main)
Параметр Endianness формата : Big
Идентификатор кодека : A_AC3
Продолжительность : 1 ч. 30 м.
Вид битрейта : Постоянный
Битрейт : 448 Кбит/сек
Каналы : 6 каналов
Расположение каналов : Front: L C R, Side: L R, LFE
Частота : 48,0 КГц
Метод сжатия : С потерями
Размер потока : 290 Мбайт (6%)
Язык : English
Default : Нет
Forced : Нет
Меню
00:00:00.000 : en:
00:09:59.974 : en:
00:19:59.990 : en:
00:29:59.964 : en:
00:39:59.980 : en:
00:49:59.997 : en:
00:59:59.971 : en:
01:09:59.987 : en:
01:19:59.961 : en:

Скриншоты

[Цитировать]



Показать сообщения:    

Текущее время: 11-Дек 07:18

Часовой пояс: UTC + 3


Вы не можете начинать темы
Вы не можете отвечать на сообщения
Вы не можете редактировать свои сообщения
Вы не можете удалять свои сообщения
Вы не можете голосовать в опросах
Вы не можете прикреплять файлы к сообщениям
Вы не можете скачивать файлы

!ВНИМАНИЕ!
Сайт не предоставляет электронные версии произведений, а занимается лишь коллекционированием и каталогизацией ссылок, присылаемых и публикуемых на форуме нашими читателями. Если вы являетесь правообладателем какого-либо представленного материала и не желаете, чтобы ссылка на него находилась в нашем каталоге, свяжитесь с нами, и мы незамедлительно удалим ее. Файлы для обмена на трекере предоставлены пользователями сайта, и администрация не несет ответственности за их содержание. Просьба не заливать файлы, защищенные авторскими правами, а также файлы нелегального содержания!