[ Сегодня идет свободное скачивание без начисления Download ]


Статистика раздачи
Нет
 
   
 
Top  
 
 
Дикая любовь (1993) SATRip-AVC Информация о фильме
Название: Дикая любовь
Год выхода: 1993
Жанр: Драма
Режиссер: Виллен Новак
В ролях: Ксения Качалина, Владимир Щегольков, Ксения Боголепова, Александра Фомичева, Наталья Сайко, Дмитрий Лаленков, Лариса Удовиченко, Юрий Евсюков, Татьяна Окуневская, Андрей Соколов, Руслан Коломиец, Злата Смирнова-Солодовникова, Тарас Дударь, Мария Виноградова, Игорь Черницкий, Майкл Даймонд, Эндрю Дрессел, Райнер Шлик, Ксения Сулима, Станислав Молганов, Вера Родионова, Павел Сборщиков, Иван Тарапата, Светлана Орличенко, Альбина Скарга
О фильме:
Максим, парень из обеспеченной семьи, и Маша, красивая девчонка из детского дома, любят друг друга. После школы они собираются пожениться. На Машину беду из Америки приезжает Сьюзен, чтобы увидеть дом, где родилась ее бабушка.В драматическом любовном треугольнике столкнулись соперницы из разных миров: милая и восторженная американская школьница и болезненная, обделенная любовью воспитанница советской школы-интерната.
Страна: Украина, Одесская киностудия
Продолжительность: 01:56:46
Перевод: не требуется
Файл
Кодек: x264
Качество: SATRip-AVC
Видео: MPEG-4 AVC, 2000 Кбит/с, [email protected]
Звук: AC3, 2 ch, 192 Кбит/с

Медиа-Инфо

raw [info]: 666x544p 16:15 @ 25/1 fps (cfr)
x264 [info]: using SAR=16/15
x264 [info]: using cpu capabilities: MMX2 SSE2Fast SSSE3 SSE4.2 AVX
x264 [info]: profile High, level 4.1
x264 [info]: frame I:989 Avg QP:15.65 size: 65036
x264 [info]: frame P:40429 Avg QP:19.28 size: 23392
x264 [info]: frame B:133756 Avg QP:20.47 size: 5545
x264 [info]: consecutive B-frames: 2.2% 3.3% 11.2% 19.0% 23.5% 35.4% 3.9% 0.8% 0.4% 0.3% 0.0%
======================================================
Общее
Уникальный идентификатор : 252968694594085660182139911441917794415 (0xBE4FFF968FA38E94B3A859644E1DD86F)
Полное имя : D:Дикая любовь_1993-SATRip-AVC.mkv
Формат : Matroska
Версия формата : Version 2
Размер файла : 1,79 Гбайт
Продолжительность : 1 ч. 56 м.
Общий поток : 2194 Кбит/сек
Дата кодирования : UTC 2016-06-14 17:47:31
Программа кодирования : mkvmerge v5.8.0 ('No Sleep / Pillow') built on Sep 2 2012 15:37:04
Библиотека кодирования : libebml v1.2.3 + libmatroska v1.3.0
Видео
Идентификатор : 1
Формат : AVC
Формат/Информация : Advanced Video Codec
Профиль формата : [email protected]
Параметр CABAC формата : Да
Параметр ReFrames формата : 13 кадров
Идентификатор кодека : V_MPEG4/ISO/AVC
Продолжительность : 1 ч. 56 м.
Битрейт : 2000 Кбит/сек
Ширина : 666 пикселей
Высота : 544 пикселя
Соотношение сторон : 4:3
Соотношение сторон в оригинале : 4:3
Режим частоты кадров : Постоянный
Частота кадров : 25,000 кадров/сек
Цветовое пространство : YUV
Субдискретизация насыщенности : 4:2:0
Битовая глубина : 8 бит
Тип развёртки : Прогрессивная
Бит/(Пиксели*Кадры) : 0.221
Размер потока : 1,60 Гбайт (89%)
Библиотека кодирования : x264 core 148 r2638 7599210
Настройки программы : cabac=1 / ref=13 / deblock=1:-2:-2 / analyse=0x3:0x133 / me=umh / subme=10 / psy=1 / psy_rd=1.03:0.12 / mixed_ref=1 / me_range=32 / chroma_me=1 / trellis=2 / 8x8dct=1 / cqm=0 / deadzone=21,11 / fast_pskip=0 / chroma_qp_offset=-3 / threads=12 / lookahead_threads=3 / sliced_threads=0 / nr=0 / decimate=0 / interlaced=0 / bluray_compat=0 / constrained_intra=0 / bframes=10 / b_pyramid=2 / b_adapt=2 / b_bias=0 / direct=3 / weightb=1 / open_gop=0 / weightp=2 / keyint=250 / keyint_min=25 / scenecut=40 / intra_refresh=0 / rc=2pass / mbtree=0 / bitrate=2000 / ratetol=1.0 / qcomp=0.63 / qpmin=0 / qpmax=39 / qpstep=4 / cplxblur=20.0 / qblur=0.5 / ip_ratio=1.40 / pb_ratio=1.30 / aq=1:1.00
Язык : English
Default : Да
Forced : Нет
Цветовой диапазон : Limited
Основные цвета : BT.601 PAL
Характеристики трансфера : BT.470 System B, BT.470 System G
Коэффициенты матрицы : BT.601
Аудио
Идентификатор : 2
Формат : AC-3
Формат/Информация : Audio Coding 3
Расширение режима : CM (complete main)
Параметр Endianness формата : Big
Идентификатор кодека : A_AC3
Продолжительность : 1 ч. 56 м.
Вид битрейта : Постоянный
Битрейт : 192 Кбит/сек
Каналы : 2 канала
Расположение каналов : Front: L R
Частота : 48,0 КГц
Метод сжатия : С потерями
Размер потока : 160 Мбайт (9%)
Язык : Russian
Default : Да
Forced : Нет

[Цитировать]



Показать сообщения:    

Текущее время: 05-Дек 05:29

Часовой пояс: UTC + 3


Вы не можете начинать темы
Вы не можете отвечать на сообщения
Вы не можете редактировать свои сообщения
Вы не можете удалять свои сообщения
Вы не можете голосовать в опросах
Вы не можете прикреплять файлы к сообщениям
Вы не можете скачивать файлы

!ВНИМАНИЕ!
Сайт не предоставляет электронные версии произведений, а занимается лишь коллекционированием и каталогизацией ссылок, присылаемых и публикуемых на форуме нашими читателями. Если вы являетесь правообладателем какого-либо представленного материала и не желаете, чтобы ссылка на него находилась в нашем каталоге, свяжитесь с нами, и мы незамедлительно удалим ее. Файлы для обмена на трекере предоставлены пользователями сайта, и администрация не несет ответственности за их содержание. Просьба не заливать файлы, защищенные авторскими правами, а также файлы нелегального содержания!