[ Сегодня идет свободное скачивание без начисления Download ]


Статистика раздачи
Нет
 
   
 
 
 
Без обмана. Мастер-ломастер (2016.06.20) SATRip - Телекомпания: ТВЦ
Жанр: Документальный, расследование
Производство: Россия
Автор: Илья Рендаков
Описание:
Это масштабное потребительское расследование, задача которого дать зрителям подробные советы, как не попасть в неприятности за собственные деньги. В центре программы оказываются самые разные товары и услуги потребительского рынка, их "судят" авторитетные эксперты и рядовые люди. Корреспонденты программы часто выступают в роли тайных агентов, внедряющихся на производства и в торговые точки, где находят массу увлекательного компромата. И главное – бьются за права пострадавших потребителей, выдвигая их обидчикам обоснованные претензии. Помимо массы интересных экспертиз и экспериментов, которые выявляют худшие и самые опасные товары в России, в программе всегда есть интересный рассказ о похожих проблемах в других странах и эксклюзивный экскурс в "историю вопроса". Кадры уникальной кинохроники и рассказ экспертов о том, как производили те же продукты питания в советскую эпоху, всегда пользуются особым успехом у телезрителей. Селедка, хлеб, вино, оливковое масло, новая иномарка или шкаф… Обычные предметы нашего обихода могут стать героями очень увлекательного расследования с детективным началом и громкими разоблачениями.
Релиз от: -=FOX=-
Продолжительность: ~ 00:39:42
Качество видео: SATRip
Субтитры: Отсутствуют
Видео: MPEG4, XviD, 704x448 (1.571), 25.000 fps, 1 800 Kbps (0.228 bit/pixel)
Аудио: MP3, 48.0 KHz, 2 ch, 128 Kbps, CBR

Mediainfo:

Формат                                   : AVI
Формат/Информация                        : Audio Video Interleave
Размер файла                             : 550 Мбайт
Продолжительность                        : 39 м.
Общий поток                              : 1937 Кбит/сек
Программа кодирования                    : VirtualDubModRus 1.5.10.2 (build 2542/release)
Библиотека кодирования                   : VirtualDubMod build 2542/release
Видео
Идентификатор                            : 0
Формат                                   : MPEG-4 Visual
Профиль формата                          : Advanced Simple@L5
Параметр BVOP формата                    : 2
Параметр QPel формата                    : Нет
Параметр GMC формата                     : Без точки перехода
Параметр матрицы формата                 : Default (MPEG)
Идентификатор кодека                     : XVID
Идентификатор кодека/Подсказка           : XviD
Продолжительность                        : 39 м.
Битрейт                                  : 1800 Кбит/сек
Ширина                                   : 704 пикселя
Высота                                   : 448 пикселей
Соотношение сторон                       : 16:10
Частота кадров                           : 25,000 кадров/сек
Цветовое пространство                    : YUV
Субдискретизация насыщенности            : 4:2:0
Битовая глубина                          : 8 бит
Тип развёртки                            : Прогрессивная
Метод сжатия                             : С потерями
Бит/(Пиксели*Кадры)                      : 0.228
Размер потока                            : 511 Мбайт (93%)
Библиотека кодирования                   : XviD 73
Аудио
Идентификатор                            : 1
Формат                                   : MPEG Audio
Версия формата                           : Version 1
Профиль формата                          : Layer 3
Идентификатор кодека                     : 55
Идентификатор кодека/Подсказка           : MP3
Продолжительность                        : 39 м.
Вид битрейта                             : Постоянный
Битрейт                                  : 128 Кбит/сек
Каналы                                   : 2 канала
Частота                                  : 48,0 КГц
Метод сжатия                             : С потерями
Размер потока                            : 36,4 Мбайт (7%)
Выравнивание                             : Соединение по промежуткам
Продолжительность промежутка             : 40  мс. (1,00 видеокадр)
Время предзагрузки промежутка            : 504  мс.
Библиотека кодирования                   : LAME3.99r
Настройки программы                      : -m s -V 4 -q 2 -lowpass 17 -b 128

В выпуске:

Сломался телевизор? Надо застеклить балкон? Пора сделать косметический ремонт? Свои услуги нам предлагают сотни мастеров, готовых выехать на дом для решения любой проблемы. И люди часто пускают в квартиру настоящих мошенников. Ремонт "стиралки" или укладка плитки превращаются в эпопею с криминальным оттенком...
Скриншоты:

[Цитировать]



Показать сообщения:    

Текущее время: 09-Дек 12:42

Часовой пояс: UTC + 3


Вы не можете начинать темы
Вы не можете отвечать на сообщения
Вы не можете редактировать свои сообщения
Вы не можете удалять свои сообщения
Вы не можете голосовать в опросах
Вы не можете прикреплять файлы к сообщениям
Вы не можете скачивать файлы

!ВНИМАНИЕ!
Сайт не предоставляет электронные версии произведений, а занимается лишь коллекционированием и каталогизацией ссылок, присылаемых и публикуемых на форуме нашими читателями. Если вы являетесь правообладателем какого-либо представленного материала и не желаете, чтобы ссылка на него находилась в нашем каталоге, свяжитесь с нами, и мы незамедлительно удалим ее. Файлы для обмена на трекере предоставлены пользователями сайта, и администрация не несет ответственности за их содержание. Просьба не заливать файлы, защищенные авторскими правами, а также файлы нелегального содержания!