[ Сегодня идет свободное скачивание без начисления Download ]


Статистика раздачи
Нет
 
   
 
 
 
Осторожно, мошенники! Дачные короли (2016.06.21) SATRip - Телекомпания: ТВЦ
Жанр: Документальный
Производство: Россия
Ведущий: Вика Коломыцына, Игорь Швыткин и Олег Лобаков
Описание:
Наверное, каждый хоть раз становился жертвой мошенников: будь то игра в "моментальные" лотереи, приобретение ненужных, а иногда и вредных пищевых добавок или общение с вымогателями денег по телефону, для пополнения мобильного счёта бедного чада, оставшегося без связи. В помощь нежелающим наступать на старые грабли зрителям на канале "ТВ Центр" в стартует новая программа "Осторожно, мошенники!", которая еженедельно станет рассказывать о самых распространенных способах отъема денег у граждан и способах борьбы с ними.
Релиз от: -=FOX=-
Продолжительность: ~ 00:23:54
Качество видео: SATRip
Субтитры: Отсутствуют
Видео: MPEG4, XviD, 704x448 (1.571), 25.000 fps, 1 796 Kbps (0.228 bit/pixel)
Аудио: MP3, 48.0 KHz, 2 ch, 128 Kbps, CBR

Mediainfo:

Формат                                   : AVI
Формат/Информация                        : Audio Video Interleave
Размер файла                             : 331 Мбайт
Продолжительность                        : 23 м.
Общий поток                              : 1934 Кбит/сек
Программа кодирования                    : VirtualDubModRus 1.5.10.2 (build 2542/release)
Библиотека кодирования                   : VirtualDubMod build 2542/release
Видео
Идентификатор                            : 0
Формат                                   : MPEG-4 Visual
Профиль формата                          : Advanced Simple@L5
Параметр BVOP формата                    : 2
Параметр QPel формата                    : Нет
Параметр GMC формата                     : Без точки перехода
Параметр матрицы формата                 : Default (MPEG)
Идентификатор кодека                     : XVID
Идентификатор кодека/Подсказка           : XviD
Продолжительность                        : 23 м.
Битрейт                                  : 1796 Кбит/сек
Ширина                                   : 704 пикселя
Высота                                   : 448 пикселей
Соотношение сторон                       : 16:10
Частота кадров                           : 25,000 кадров/сек
Цветовое пространство                    : YUV
Субдискретизация насыщенности            : 4:2:0
Битовая глубина                          : 8 бит
Тип развёртки                            : Прогрессивная
Метод сжатия                             : С потерями
Бит/(Пиксели*Кадры)                      : 0.228
Размер потока                            : 307 Мбайт (93%)
Библиотека кодирования                   : XviD 73
Аудио
Идентификатор                            : 1
Формат                                   : MPEG Audio
Версия формата                           : Version 1
Профиль формата                          : Layer 3
Идентификатор кодека                     : 55
Идентификатор кодека/Подсказка           : MP3
Продолжительность                        : 23 м.
Вид битрейта                             : Постоянный
Битрейт                                  : 128 Кбит/сек
Каналы                                   : 2 канала
Частота                                  : 48,0 КГц
Метод сжатия                             : С потерями
Размер потока                            : 21,9 Мбайт (7%)
Выравнивание                             : Соединение по промежуткам
Продолжительность промежутка             : 40  мс. (1,00 видеокадр)
Время предзагрузки промежутка            : 504  мс.
Библиотека кодирования                   : LAME3.99r
Настройки программы                      : -m s -V 4 -q 2 -lowpass 17 -b 128

В выпуске:

Если в руководство СНТ пролез аферист, вместо релакса на природе вы получите одну головную боль! Председатели-мошенники собирают деньги на коммуникации и обустройство и бегут прочь от обманутых дачников, распродают участки по поддельным документам и оформляют липовую приватизацию. Как не попасть в лапы мошенникам от СНТ?
Скриншоты:

[Цитировать]



Показать сообщения:    

Текущее время: 11-Дек 07:13

Часовой пояс: UTC + 3


Вы не можете начинать темы
Вы не можете отвечать на сообщения
Вы не можете редактировать свои сообщения
Вы не можете удалять свои сообщения
Вы не можете голосовать в опросах
Вы не можете прикреплять файлы к сообщениям
Вы не можете скачивать файлы

!ВНИМАНИЕ!
Сайт не предоставляет электронные версии произведений, а занимается лишь коллекционированием и каталогизацией ссылок, присылаемых и публикуемых на форуме нашими читателями. Если вы являетесь правообладателем какого-либо представленного материала и не желаете, чтобы ссылка на него находилась в нашем каталоге, свяжитесь с нами, и мы незамедлительно удалим ее. Файлы для обмена на трекере предоставлены пользователями сайта, и администрация не несет ответственности за их содержание. Просьба не заливать файлы, защищенные авторскими правами, а также файлы нелегального содержания!