[ Сегодня идет свободное скачивание без начисления Download ]


Статистика раздачи
Нет
 
   
 
 
 
История криминалистики (1-6 серий из 6) (2014) WEB-DL 720p - Телекомпания: Украина, FILM.UA, Signal Red
Жанр: Документальный, история, реконструкция
Режиссер: Вера Яковенко
Ведущий: Даниил Спиваковский
Описание:
Эксклюзивный цикл документальных драм, состоящий из 6 эпизодов. Он расскажет зрителям о том, как при помощи криминалистики раскрывались самые резонансные преступления: взрыв на улице Сен-Жермен в Париже, смерть Владимира Маяковского, похищение "Джоконды" Леонардо да Винчи и многие другие. В современном мире ежедневно совершается множество преступлений, многие из которых раскрываются благодаря методам криминалистики, в том числе и благодаря исследованиям, разработанным два столетия назад. Как криминалисты распутывают самые сложные дела и помогают найти преступника? Какой метод стал революционным и помог вывести работу следователей на новый уровень? Проект "История криминалистики" позволит зрителям увидеть различные стороны участия криминалистов в борьбе с преступностью, и расскажет о самых громких и резонансных раскрытых убийствах.
Продолжительность: 6 x ~ 00:43:00
Качество видео: WEB-DL
Видео: AVC/H.264, 1280x720, ~1800 kbps
Аудио: AC3, 2 ch, 224 kbps, CBR

Mediainfo: (тех. параметры всех файлов идентичны)

Общее
Уникальный идентификатор                 : 319255611841208117900688943966024333795 (0xF02E64EF435A2A9F21A2DD0FFFB779E3)
Полное имя                               : F:\КИНО\История криминалистики\01.История криминалистики.mkv
Формат                                   : Matroska
Версия формата                           : Version 4 / Version 2
Размер файла                             : 610 Мбайт
Продолжительность                        : 42 м.
Общий поток                              : 2021 Кбит/сек
Программа кодирования                    : Lavf56.36.100
Библиотека кодирования                   : Lavf56.36.100 / Lavf56.36.100
Видео
Идентификатор                            : 1
Формат                                   : AVC
Формат/Информация                        : Advanced Video Codec
Профиль формата                          : [url=mailto:High@L3.1]High@L3.1[/url]
Параметр CABAC формата                   : Да
Параметр ReFrames формата                : 3 кадра
Идентификатор кодека                     : V_MPEG4/ISO/AVC
Продолжительность                        : 42 м.
Битрейт                                  : 1800 Кбит/сек
Ширина                                   : 1280 пикселей
Высота                                   : 720 пикселей
Соотношение сторон                       : 16:9
Режим частоты кадров                     : Постоянный
Частота кадров                           : 25,000 кадров/сек
Цветовое пространство                    : YUV
Субдискретизация насыщенности            : 4:2:0
Битовая глубина                          : 8 бит
Тип развёртки                            : Прогрессивная
Бит/(Пиксели*Кадры)                      : 0.078
Размер потока                            : 530 Мбайт (87%)
Библиотека кодирования                   : x264 core 142 r2389 956c8d8
Настройки программы                      : cabac=1 / ref=3 / deblock=1:0:0 / analyse=0x3:0x133 / me=umh / subme=7 / psy=1 / psy_rd=1.00:0.00 / mixed_ref=1 / me_range=32 / chroma_me=1 / trellis=2 / 8x8dct=1 / cqm=0 / deadzone=21,11 / fast_pskip=1 / chroma_qp_offset=-2 / threads=12 / lookahead_threads=2 / sliced_threads=0 / nr=0 / decimate=1 / interlaced=0 / bluray_compat=0 / constrained_intra=0 / bframes=0 / weightp=0 / keyint=75 / keyint_min=26 / scenecut=40 / intra_refresh=0 / rc_lookahead=50 / rc=2pass / mbtree=0 / bitrate=1800 / ratetol=1.0 / qcomp=0.20 / qpmin=10 / qpmax=51 / qpstep=4 / cplxblur=20.0 / qblur=0.5 / vbv_maxrate=2000 / vbv_bufsize=2000 / nal_hrd=none / filler=0 / ip_ratio=1.40 / aq=1:1.00
Default                                  : Да
Forced                                   : Нет
Цветовой диапазон                        : Limited
Основные цвета                           : BT.709
Характеристики трансфера                 : BT.709
Коэффициенты матрицы                     : BT.709
Аудио
Идентификатор                            : 2
Формат                                   : AC-3
Формат/Информация                        : Audio Coding 3
Расширение режима                        : CM (complete main)
Параметр Endianness формата              : Big
Идентификатор кодека                     : A_AC3
Продолжительность                        : 42 м.
Вид битрейта                             : Постоянный
Битрейт                                  : 224 Кбит/сек
Каналы                                   : 2 канала
Расположение каналов                     : Front: L R
Частота                                  : 44,1 КГц
Частота кадров                           : 28,711 кадров/сек (1536 spf)
Метод сжатия                             : С потерями
Размер потока                            : 67,6 Мбайт (11%)
Default                                  : Да
Forced                                   : Нет

Содержание серий:

01 - Идентификация
02 - Дактилоскопия
03 - Баллистика
04 - Судебная медицина
05 - Яды и токсикология
06 - ДНК и новые следы
Скриншоты:

Дополнительные скриншоты:


[Цитировать]



Показать сообщения:    

Текущее время: 02-Дек 20:59

Часовой пояс: UTC + 3


Вы не можете начинать темы
Вы не можете отвечать на сообщения
Вы не можете редактировать свои сообщения
Вы не можете удалять свои сообщения
Вы не можете голосовать в опросах
Вы не можете прикреплять файлы к сообщениям
Вы не можете скачивать файлы

!ВНИМАНИЕ!
Сайт не предоставляет электронные версии произведений, а занимается лишь коллекционированием и каталогизацией ссылок, присылаемых и публикуемых на форуме нашими читателями. Если вы являетесь правообладателем какого-либо представленного материала и не желаете, чтобы ссылка на него находилась в нашем каталоге, свяжитесь с нами, и мы незамедлительно удалим ее. Файлы для обмена на трекере предоставлены пользователями сайта, и администрация не несет ответственности за их содержание. Просьба не заливать файлы, защищенные авторскими правами, а также файлы нелегального содержания!