[ Сегодня идет свободное скачивание без начисления Download ]


Статистика раздачи
Нет
 
   
 
Top  
 
 
3 сезонМамочка / Mom-
Год выпуска: 2015
Страна: США
Жанр: комедия
Продолжительность: ~22 мин
Перевод: Любительский (двухголосый закадровый) - ZM-SHOW
Режиссёр: Джеймс Уиддоуз / James Widdoes, Памела Фрайман / Pamela Fryman, Гари Хэлворсон / Gary Halvorson, Джефф Гринштейн / Jeff Greenstein
В ролях: Анна Фэрис, Эллисон Дженни, Сэди Кальвано, Блейк Гаррет, Нэйтан Кордри, Спенсер Дэниелс, Мэтт Джонс, Френч Стюарт, Анджело Романелли, Антонио Гомес, Майлз Дж.Д. Веддер, Регги Де Леон, Девид де Латур, Кортни Хенгелер, Джесси Мерлин, Кэти Молинаро, Шэйн Блейдс, Джилл Ловер, Джордж Паэс, Джастин Лонг
Описание: Кристи работает официанткой в роскошном ресторане в долине Напа (это, кто не знает, центр виноделия). Её твердое решение хранить трезвость постоянно подвергается испытаниям со стороны матери, в недалеком прошлом такой же алкоголички, женатого любовника, а также начальника Гэбриэла. Компанию им составляют - вспыльчивый шеф-повар Руди, её пока не научившийся врать сын Роско, его безответственный отец и её бывший муж Бакстер, а также стремительно взрослеющая красавица-дочь Вайолет со своим бестолковым парнем Люком. Кристи пытается нащупать новый путь в жизни, несмотря на сомнительную поддержку близких и щедрые подножки судьбы.- -Качество: WEB-DLRip
Контейнер: MKV-Видео: 720x404 (16:9), AVC ([email protected]), 23,976 fps, ~750 kbps avg, 0.108 bit/pixel
Аудио: [RUS] 44,1 kHz, AAC, 1 ch, Front: C, 128 kbps — Любительский (двухголосый закадровый) - ZM-SHOW
Аудио: [ENG] 48 kHz, AAC, 2 ch, Front: L R, 128 kbps
Субтитры: отсутствуют-

MediaInfo

Общее
Уникальный идентификатор : 210123844392174630941578611703473636965 (0x9E146161881C1490A99C1B972EC20665)
Полное имя : F:Mom.S03.WEB-DLRip.Rus.EngMom.s01e01.WEB-DLRip.Rus.Eng.mkv
Формат : Matroska
Версия формата : Version 4 / Version 2
Размер файла : 146 Мбайт
Продолжительность : 20 м.
Общий поток : 985 Кбит/сек
Дата кодирования : UTC 2016-03-22 08:54:17
Программа кодирования : mkvmerge v8.5.2 ('Crosses') 64bit
Библиотека кодирования : libebml v1.3.3 + libmatroska v1.4.4
Видео
Идентификатор : 1
Формат : AVC
Формат/Информация : Advanced Video Codec
Профиль формата : [email protected]
Параметр CABAC формата : Да
Параметр ReFrames формата : 5 кадров
Идентификатор кодека : V_MPEG4/ISO/AVC
Продолжительность : 20 м.
Битрейт : 750 Кбит/сек
Ширина : 720 пикселей
Высота : 404 пикселя
Соотношение сторон : 16:9
Режим частоты кадров : Постоянный
Частота кадров : 23,976 (24000/1001) кадра/сек
Цветовое пространство : YUV
Субдискретизация насыщенности : 4:2:0
Битовая глубина : 8 бит
Тип развёртки : Прогрессивная
Бит/(Пиксели*Кадры) : 0.108
Размер потока : 111 Мбайт (76%)
Библиотека кодирования : x264 core 148 r2638 7599210
Настройки программы : cabac=1 / ref=5 / deblock=1:1:1 / analyse=0x3:0x133 / me=umh / subme=9 / psy=1 / psy_rd=1.00:0.00 / mixed_ref=1 / me_range=16 / chroma_me=1 / trellis=2 / 8x8dct=1 / cqm=0 / deadzone=21,11 / fast_pskip=0 / chroma_qp_offset=-2 / threads=24 / lookahead_threads=2 / sliced_threads=0 / nr=0 / decimate=1 / interlaced=0 / bluray_compat=0 / constrained_intra=0 / bframes=3 / b_pyramid=2 / b_adapt=2 / b_bias=0 / direct=3 / weightb=1 / open_gop=0 / weightp=2 / keyint=250 / keyint_min=23 / scenecut=40 / intra_refresh=0 / rc_lookahead=60 / rc=crf / mbtree=1 / crf=19.0 / qcomp=0.60 / qpmin=0 / qpmax=69 / qpstep=4 / ip_ratio=1.40 / aq=1:1.00
Default : Да
Forced : Нет
Цветовой диапазон : Limited
Коэффициенты матрицы : BT.709
Аудио #1
Идентификатор : 2
Формат : AAC
Формат/Информация : Advanced Audio Codec
Профиль формата : LC
Идентификатор кодека : A_AAC
Продолжительность : 20 м.
Битрейт : 128 Кбит/сек
Каналы : 2 канала
Расположение каналов : Front: L R
Частота : 48,0 КГц
Частота кадров : 46,875 кадров/сек (1024 spf)
Метод сжатия : С потерями
Задержка видео : -140 мс.
Размер потока : 15,8 Мбайт (11%)
Заголовок : eng
Язык : English
Default : Нет
Forced : Нет
Аудио #2
Идентификатор : 3
Формат : AAC
Формат/Информация : Advanced Audio Codec
Профиль формата : LC
Идентификатор кодека : A_AAC
Продолжительность : 20 м.
Битрейт : 128 Кбит/сек
Каналы : 1 канал
Расположение каналов : Front: C
Частота : 44,1 КГц
Частота кадров : 43,066 кадра/сек (1024 spf)
Метод сжатия : С потерями
Задержка видео : -124 мс.
Размер потока : 18,6 Мбайт (13%)
Заголовок : rus
Язык : Russian
Default : Да
Forced : Да

Скриншоты

Внимание! Раздача ведётся путём добавления новых серий

Внимание! Раздача ведётся путём добавления новых серий; при каждом добавлении создаётся новый торрент. Чтобы начать докачку новой серии, пользователям необходимо сделать следующее:
(1) остановить скачивание,
(2) удалить старый торрент у себя из клиента (старые серии удалять не надо),
(3) скачать новый торрент и запустить его у себя в клиенте вместо старого, при этом указать клиенту путь в старую папку куда и должно происходить скачивание новых серий.
Ваш клиент при этом должен произвести хеширование (проверку) старой папки (если не производит сам - помогите ему сделать это), и будет докачивать только те серии которых у вас ещё нет. Старые серии при этом не удаляются, а продолжают раздаваться!
Eсли вы уже удалили старые серии, то предотвратить повторную закачку старых серий можно, отжав галочку в соответствующих местах при запуске нового торрента. По возможности, желательно не удалять старые серии как можно дольше чтобы релизёр не столько продолжал раздавать старые серии, а смог сконцентрироваться на новых.-

[Цитировать]



Показать сообщения:    

Текущее время: 04-Дек 15:19

Часовой пояс: UTC + 3


Вы не можете начинать темы
Вы не можете отвечать на сообщения
Вы не можете редактировать свои сообщения
Вы не можете удалять свои сообщения
Вы не можете голосовать в опросах
Вы не можете прикреплять файлы к сообщениям
Вы не можете скачивать файлы

!ВНИМАНИЕ!
Сайт не предоставляет электронные версии произведений, а занимается лишь коллекционированием и каталогизацией ссылок, присылаемых и публикуемых на форуме нашими читателями. Если вы являетесь правообладателем какого-либо представленного материала и не желаете, чтобы ссылка на него находилась в нашем каталоге, свяжитесь с нами, и мы незамедлительно удалим ее. Файлы для обмена на трекере предоставлены пользователями сайта, и администрация не несет ответственности за их содержание. Просьба не заливать файлы, защищенные авторскими правами, а также файлы нелегального содержания!