[ Сегодня идет свободное скачивание без начисления Download ]


Статистика раздачи
Нет
 
   
 
Top  
 
 
Спрятанный в лесу / Hidden in the Woods Информация о фильме
Название: Спрятанный в лесу
Оригинальное название: Hidden in the Woods
Год выхода: 2014
Жанр: триллер
Режиссер: Патрисио Вальядарес
В ролях: Майкл Бин, Джаннин Каспар, Электра Авеллан, Уильям Форсайт, Ник Бейтман, Дженнифер Бланк, Крис Браунинг, Кэйтлин Китс, Эви Томпсон, Кшиштоф Сошинский
О фильме:
Извращенец и алкоголик Филипп растит в лесной глуши трех своих детей — двух дочерей и умственно отсталого сына. «Растит», конечно, сильно сказано: после того как он убил свою жену, полоумный папаша всячески издевается над детьми, даже насилует девочек. А в их доме свой товар хранят наркоторговцы. Из-за этого-то однажды в лес наведываются полицейские, и пока отец разбирается с ними с помощью бензопилы, детям удается бежать в лес…

Страна: США, Франция
Продолжительность: 01:30:42
Перевод: Авторский, закадровый [А.Дольский]
Файл
Кодек: H.264
Качество: BDRip 720p
Видео: MPEG-4 / AVC, 1280x720 (16:9), 23.976 fps ~ 5625 Kbps
Звук:
AC3, 48 KHz 6 ch ~ 640 Kb/s (русский)
AC3, 48 KHz 6 ch ~ 640 Kb/s (английский)
Субтитры: немецкие

MI:

Общее
Уникальный идентификатор : 236399207524400350532486089019337136076 (0xB1D8D4CD75ABCA7CB0FCC8F7A95ED7CC)
Полное имя : Q:TorFSpryatannyi.v.Lesu.2016.DUAL.BDRip.720p.-HELLYWOOD.mkv
Формат : Matroska
Версия формата : Version 4 / Version 2
Размер файла : 4,37 Гбайт
Продолжительность : 1 ч. 30 м.
Общий поток : 6900 Кбит/сек
Название фильма : Hidden in the Woods (2014)
Дата кодирования : UTC 2016-06-20 17:04:27
Программа кодирования : mkvmerge v5.9.0 ('On The Loose') built on Dec 15 2012 16:39:58
Библиотека кодирования : libebml v1.3.0 + libmatroska v1.4.0
Видео
Идентификатор : 1
Формат : AVC
Формат/Информация : Advanced Video Codec
Профиль формата : High@L4.1
Параметр CABAC формата : Да
Параметр ReFrames формата : 9 кадров
Идентификатор кодека : V_MPEG4/ISO/AVC
Продолжительность : 1 ч. 30 м.
Битрейт : 5625 Кбит/сек
Ширина : 1280 пикселей
Высота : 720 пикселей
Соотношение сторон : 16:9
Частота кадров : 23,976 кадра/сек
Цветовое пространство : YUV
Субдискретизация насыщенности : 4:2:0
Битовая глубина : 8 бит
Тип развёртки : Прогрессивная
Бит/(Пиксели*Кадры) : 0.255
Размер потока : 3,47 Гбайт (79%)
Заголовок : potroks
Библиотека кодирования : x264 core 148 r2705M 3f5ed56
Настройки программы : cabac=1 / ref=9 / deblock=1:-2:-2 / analyse=0x3:0x133 / me=umh / subme=11 / psy=1 / psy_rd=1.05:0.13 / mixed_ref=1 / me_range=48 / chroma_me=1 / trellis=2 / 8x8dct=1 / cqm=0 / deadzone=21,11 / fast_pskip=0 / chroma_qp_offset=-3 / threads=9 / lookahead_threads=2 / sliced_threads=0 / nr=0 / decimate=0 / interlaced=0 / bluray_compat=0 / constrained_intra=0 / bframes=10 / b_pyramid=2 / b_adapt=2 / b_bias=0 / direct=3 / weightb=1 / open_gop=0 / weightp=2 / keyint=240 / keyint_min=23 / scenecut=40 / intra_refresh=0 / rc_lookahead=100 / rc=2pass / mbtree=0 / bitrate=5625 / ratetol=1.0 / qcomp=0.70 / qpmin=1 / qpmax=69 / qpstep=4 / cplxblur=20.0 / qblur=0.5 / vbv_maxrate=50000 / vbv_bufsize=60000 / nal_hrd=none / filler=0 / ip_ratio=1.40 / pb_ratio=1.30 / aq=1:0.75
Язык : English
Default : Да
Forced : Нет
Аудио #1
Идентификатор : 2
Формат : AC-3
Формат/Информация : Audio Coding 3
Расширение режима : CM (complete main)
Идентификатор кодека : A_AC3
Продолжительность : 1 ч. 30 м.
Вид битрейта : Постоянный
Битрейт : 640 Кбит/сек
Каналы : 6 каналов
Расположение каналов : Front: L C R, Side: L R, LFE
Частота : 48,0 КГц
Битовая глубина : 16 бит
Метод сжатия : С потерями
Размер потока : 415 Мбайт (9%)
Заголовок : AVO | DD 5.1 @ 640 kbps - A.Dolsky
Язык : Russian
Default : Да
Forced : Нет
Аудио #2
Идентификатор : 3
Формат : AC-3
Формат/Информация : Audio Coding 3
Расширение режима : CM (complete main)
Идентификатор кодека : A_AC3
Продолжительность : 1 ч. 30 м.
Вид битрейта : Постоянный
Битрейт : 640 Кбит/сек
Каналы : 6 каналов
Расположение каналов : Front: L C R, Side: L R, LFE
Частота : 48,0 КГц
Битовая глубина : 16 бит
Метод сжатия : С потерями
Размер потока : 415 Мбайт (9%)
Заголовок : Original | DD 5.1 @ 640 kbps
Язык : English
Default : Нет
Forced : Нет
Текст #1
Идентификатор : 4
Формат : UTF-8
Идентификатор кодека : S_TEXT/UTF8
Идентификатор кодека/Информация : UTF-8 Plain Text
Заголовок : Forced
Язык : German
Default : Нет
Forced : Нет
Текст #2
Идентификатор : 5
Формат : UTF-8
Идентификатор кодека : S_TEXT/UTF8
Идентификатор кодека/Информация : UTF-8 Plain Text
Заголовок : Full
Язык : German
Default : Нет
Forced : Нет
Меню
00:00:00.000 : en:(01)00:00:00:000
00:05:00.000 : en:(02)00:05:00:000
00:10:00.000 : en:(03)00:10:00:000
00:15:00.000 : en:(04)00:15:00:000
00:20:00.000 : en:(05)00:20:00:000
00:25:00.000 : en:(06)00:25:00:000
00:30:00.000 : en:(07)00:30:00:000
00:35:00.000 : en:(08)00:35:00:000
00:40:00.000 : en:(09)00:40:00:000
00:45:00.000 : en:(10)00:45:00:000
00:50:00.000 : en:(11)00:50:00:000
00:55:00.000 : en:(12)00:55:00:000
01:00:00.000 : en:(13)01:00:00:000
01:05:00.000 : en:(14)01:05:00:000
01:10:00.000 : en:(15)01:10:00:000
01:15:00.000 : en:(16)01:15:00:000
01:20:00.000 : en:(17)01:20:00:000
01:25:00.000 : en:(18)01:25:00:000
01:30:00.000 : en:(19)01:30:00:000

Скриншоты

[Цитировать]



Показать сообщения:    

Текущее время: 10-Дек 23:31

Часовой пояс: UTC + 3


Вы не можете начинать темы
Вы не можете отвечать на сообщения
Вы не можете редактировать свои сообщения
Вы не можете удалять свои сообщения
Вы не можете голосовать в опросах
Вы не можете прикреплять файлы к сообщениям
Вы не можете скачивать файлы

!ВНИМАНИЕ!
Сайт не предоставляет электронные версии произведений, а занимается лишь коллекционированием и каталогизацией ссылок, присылаемых и публикуемых на форуме нашими читателями. Если вы являетесь правообладателем какого-либо представленного материала и не желаете, чтобы ссылка на него находилась в нашем каталоге, свяжитесь с нами, и мы незамедлительно удалим ее. Файлы для обмена на трекере предоставлены пользователями сайта, и администрация не несет ответственности за их содержание. Просьба не заливать файлы, защищенные авторскими правами, а также файлы нелегального содержания!