[ Сегодня идет свободное скачивание без начисления Download ]


Статистика раздачи
Буду качать: [ 1 ]
Скачал: [ 5 ]
 
   
 
Top  
 
 
Джеймс Симпсон | Создание кроссплатформенной мобильной игры в HTML5 и JavaScript (2016) PCRec - Автор (режиссер): Джеймс Симпсон
Производство: Digital Tutors
Жанр: JavaScript, HTML5
Описание:
На этом курсе по HTML5 и javascript мы рассмотрим как создавать кроссплатформенную игру используя HTML5.На протяжении этого урока, мы рассмотрим различные методы и технологии, которые нам необходимы для создания интерактивной браузерной игры которая будет корректно отображаться на любом экране или девайсе.
Продолжительность: 1:29:30
Качество видео: PCRec
Видео: AVC/H.264, 1280x720, ~3600
Аудио: AAC, 2 ch, 126 Kbps, 44.0 KHz, VBR

Mediainfo:

Общее
Полное имя : D:\1\Создание кроссплатформенной мобильной игры в HTML5 и JavaScript (2016)\1. Введение и обзор проекта\1. Введение и обзор проекта.mp4
Формат : MPEG-4
Профиль формата : Base Media / Version 2
Идентификатор кодека : mp42 (isom/mp42)
Размер файла : 42,8 Мбайт
Продолжительность : 1 м. 9 с.
Режим общего битрейта : Переменный
Общий поток : 5168 Кбит/сек
Название фильма : 1. Введение и обзор проекта
Дата кодирования : UTC 2016-04-27 16:37:54
Дата пометки : UTC 2016-04-27 16:37:54
Видео
Идентификатор : 1
Формат : AVC
Формат/Информация : Advanced Video Codec
Профиль формата : Baseline@L3.1
Параметр CABAC формата : Нет
Параметр ReFrames формата : 3 кадра
Параметр GOP формата : M=1, N=75
Идентификатор кодека : avc1
Идентификатор кодека/Информация : Advanced Video Coding
Продолжительность : 1 м. 9 с.
Битрейт : 5040 Кбит/сек
Ширина : 1280 пикселей
Высота : 720 пикселей
Соотношение сторон : 16:9
Режим частоты кадров : Постоянный
Частота кадров : 15,000 кадров/сек
Цветовое пространство : YUV
Субдискретизация насыщенности : 4:2:0
Битовая глубина : 8 бит
Тип развёртки : Прогрессивная
Бит/(Пиксели*Кадры) : 0.365
Размер потока : 41,7 Мбайт (98%)
Язык : English
Дата кодирования : UTC 2016-04-27 16:37:54
Дата пометки : UTC 2016-04-27 16:37:54
Цветовой диапазон : Limited
Аудио
Идентификатор : 2
Формат : AAC
Формат/Информация : Advanced Audio Codec
Профиль формата : LC
Идентификатор кодека : 40
Продолжительность : 1 м. 9 с.
Вид битрейта : Переменный
Битрейт : 126 Кбит/сек
Максимальный битрейт : 416 Кбит/сек
Каналы : 2 канала
Расположение каналов : Front: L R
Частота : 44,1 КГц
Частота кадров : 43,066 кадра/сек (1024 spf)
Метод сжатия : С потерями
Размер потока : 1,04 Мбайт (2%)
Язык : English
Дата кодирования : UTC 2016-04-27 16:37:54
Дата пометки : UTC 2016-04-27 16:37:54

Содержание курса:

1) Введение и обзор проекта
2) Настройка HTML5 для создания игры
3) Добавление touchevents
4) Настройка игры под разные разрешения экранов
5) Настройка изменение отображения при повороте устройства
6) Запуск игры на максимальных настройках графики
7) Создание максимальных настроек графики
8) Подключение к игре акселерометра
9) Настройка кроссплатформенного звука
10) Установка веб-приложения на компьютеры
11) Конвертация приложения для использования на мобильных устройствах.
Скриншоты:

[Цитировать]



Показать сообщения:    

Текущее время: 10-Дек 23:28

Часовой пояс: UTC + 3


Вы не можете начинать темы
Вы не можете отвечать на сообщения
Вы не можете редактировать свои сообщения
Вы не можете удалять свои сообщения
Вы не можете голосовать в опросах
Вы не можете прикреплять файлы к сообщениям
Вы не можете скачивать файлы

!ВНИМАНИЕ!
Сайт не предоставляет электронные версии произведений, а занимается лишь коллекционированием и каталогизацией ссылок, присылаемых и публикуемых на форуме нашими читателями. Если вы являетесь правообладателем какого-либо представленного материала и не желаете, чтобы ссылка на него находилась в нашем каталоге, свяжитесь с нами, и мы незамедлительно удалим ее. Файлы для обмена на трекере предоставлены пользователями сайта, и администрация не несет ответственности за их содержание. Просьба не заливать файлы, защищенные авторскими правами, а также файлы нелегального содержания!