[ Сегодня идет свободное скачивание без начисления Download ]


Статистика раздачи
Буду качать: [ 1 ]
Скачал: [ 6 ]
 
   
 
Top  
 
 
Андрей Громов | Настройка кампаний директ на РСЯ (2016) PCRec - Автор (режиссер): Андрей Громов
Жанр: Контекстная реклама, Яндек.Директ
Описание:
У тебя есть свой маленький бизнес, но катастрофически не хватает клиентов?
Что значит мало клиентов? Это значит, что МАЛО людей знают о твоем сайте (магазине, мастерской, офисе, товаре, услуге). Если люди НЕ знают о том, что ты существуешь, то как они станут твоими клиентами? Никак. Нужно, чтобы узнали. Запускай рекламу Директ на РСЯ! Уже через неделю о тебе узнают десятки тысяч человек. Круто?
Продолжительность: 08:10:06
Качество видео: PCRec
Видео: VC-1, 1280x720, ~345
Аудио: WMA, 2 ch, 126 Kbps, 44.0 KHz, VBR

Mediainfo:

Общее
Полное имя : D:\1\Настройка кампаний директ на РСЯ (2016)\1. Часть первая - Основы\1. Что такое Рекламная Сеть Яндекса.wmv
Формат : Windows Media
Размер файла : 33,6 Мбайт
Продолжительность : 9 м. 13 с.
Режим общего битрейта : Переменный
Общий поток : 508 Кбит/сек
Максимальный общий битрейт : 2562 Кбит/сек
Дата кодирования : UTC 2015-11-30 11:03:03.606
Видео
Идентификатор : 2
Формат : VC-1
Профиль формата : [email protected]
Идентификатор кодека : WMV3
Идентификатор кодека/Информация : Windows Media Video 9
Идентификатор кодека/Подсказка : WMV3
Описание кодека : Windows Media Video 9
Продолжительность : 9 м. 13 с.
Вид битрейта : Переменный
Битрейт : 348 Кбит/сек
Ширина : 1280 пикселей
Высота : 720 пикселей
Соотношение сторон : 16:9
Частота кадров : 30,000 кадров/сек
Цветовое пространство : YUV
Субдискретизация насыщенности : 4:2:0
Битовая глубина : 8 бит
Тип развёртки : Прогрессивная
Метод сжатия : С потерями
Бит/(Пиксели*Кадры) : 0.013
Размер потока : 23,0 Мбайт (69%)
Язык : English (US)
Аудио
Идентификатор : 1
Формат : WMA
Версия формата : Version 2
Идентификатор кодека : 161
Идентификатор кодека/Информация : Windows Media Audio
Описание кодека : Windows Media Audio 9.2 - VBR Quality 90, 44 kHz, stereo 1-pass VBR
Продолжительность : 9 м. 13 с.
Вид битрейта : Переменный
Битрейт : 128 Кбит/сек
Каналы : 2 канала
Частота : 44,1 КГц
Битовая глубина : 16 бит
Размер потока : 8,47 Мбайт (25%)
Язык : English (US)

Содержание курса:

Часть первая - основы
В первой части ты создашь тестовую рекламную кампанию и получишь всего 10 кликов. Цель первой части - разобраться с базовыми настройками и понять принцип работы Директа на РСЯ.
- Что такое Рекламная Сеть Яндекса
- Темы запрещенные в Директе
- Про модерацию
- Конкретность и креатив в объявлениях
- Программа для обработки фотографий
- Создание папки под Директ
- Кадрирование фотографии
- Коррекция фотографии
- Как сделать белый фон
- Текст для объявления
- Подбор ключевых запросов
- Регистрация аккаунта в яндексе
- Вход в Яндекс Директ
- Что такое рекламная компания в Директ
- Создание рекламной кампании
- Поисковые и тематические площадки
- Выбор стратегии показов на РСЯ
- Корректировка ставок
- Временной таргетинг
- Регион показа
- Виртуальная визитка
- Единый набор минус-слов для объявлений на РСЯ
- Настройки на тематических площадках
- Счетчики Метрики
- Расширенные настройки
- Создание объявления
- Выбор ставок и отправка на модерацию
- Оплата компании
- Если компания не прошла модерацию
- Краткая экскурсия по интерфейсу
- Обзор результатов тестовой компании
Часть вторая - Продвинутые техники
Изучив вторую часть, ты создашь кампанию на уровне крутого профессионала. Научишься правильно определять Цели на сайте, устанавливать счетчики Метрики, внедрять в ссылки UTM - метки, работать с Директ Коммандером и еще много чего.
- Что такое СТR и на что оно влияет на РСЯ
- Подбор ключевых запросов в Вордстат
- Оптимизация рекламных компаний
- Получение кода счетчика Метрики
- Установка счетчика на сайт
- Определение целей на сайте
- Настройка целей в Яндекс Метрике
- Цель Оформление заказа через форму заказа
- Цель Оформление заказа из корзины
- Цель Скачивание прайс листа
- Цель Просмотр каталогов
- Цель фото в галерее
- Цель количество просмотров
- Составная цель
- Анализ первых данных по достижениям целей
- Создание новой компании
- Что такое ЮТМ метки
- ЮТМ метка на видео Ютуб
- ЮТМ метка для объявлений РСЯ
- Динамические параметры ЮТМ меток
- Подстановка ссылок с ЮТМ метками в объявление
- АВ тест объявлений
- Установка программы Директ Командер
- Создание объявлений с разными картинками
- Примеры рекламных текстов
- Создание групп объявлений с разным текстом
- Группа креативных объявлений
- Создание компании ДЕНЬ
- Создание компаний по интересам пользователя
- Выгрузка рекламной кампании в аккаунт
- Отправка рекламных компаний на модерацию
Часть третья - Аналитика
Деньги с рекламной компании списываются за клик. В теории кликать должны только те, кого заинтересовало объявление. На самом деле, кликают все кому не лень и тупо сжигают деньги. Аналитика позволяет выявить и отключить объявления, по которым происходит много пустых переходов и оставить те, которые приносят заказы.
- Введение в аналитику
- Сколько заработал на рекламе в Директ
- Психологический порог высокой цены
- Как зарабатывать больше – карта раздумий
- Показатель CTR
- Показатель отказов
- Отказы в разных браузерах
- Конверсии по цели Посещение страницы
- Заключение
Скриншоты:

[Цитировать]



Показать сообщения:    

Текущее время: 05-Дек 15:36

Часовой пояс: UTC + 3


Вы не можете начинать темы
Вы не можете отвечать на сообщения
Вы не можете редактировать свои сообщения
Вы не можете удалять свои сообщения
Вы не можете голосовать в опросах
Вы не можете прикреплять файлы к сообщениям
Вы не можете скачивать файлы

!ВНИМАНИЕ!
Сайт не предоставляет электронные версии произведений, а занимается лишь коллекционированием и каталогизацией ссылок, присылаемых и публикуемых на форуме нашими читателями. Если вы являетесь правообладателем какого-либо представленного материала и не желаете, чтобы ссылка на него находилась в нашем каталоге, свяжитесь с нами, и мы незамедлительно удалим ее. Файлы для обмена на трекере предоставлены пользователями сайта, и администрация не несет ответственности за их содержание. Просьба не заливать файлы, защищенные авторскими правами, а также файлы нелегального содержания!