[ Сегодня идет свободное скачивание без начисления Download ]


Статистика раздачи
Буду качать: [ 1 ]
Скачал: [ 8 ]
 
   
 
Top  
 
 
akmshik | Создание видео в After Effects на основе шаблонов (2016) PCRec - Автор (режиссер): akmshik
Жанр: After Effects
Описание:
Если видео создаются с помощью шаблонов, то даже новичок, что узнал о программе сегодня, сможет сделать профессиональный ролик. Именно созданию видео на основе шаблонов и посвящен курс. Такие видео смотрятся на порядок лучше, чем работы с нуля полу-профессионалов.
На кого рассчитан курс?
Курс рассчитан на тех, кто хотя бы базово знаком с программой After Effects. Однако, для тех, кто в первый раз о ней слышит, я записал видео и дал все необходимые ссылки, где можно найти программу и как за 1 день освоить ее до того уровня, как вы сможете работать с шаблонами.
В курсе рассмотрена работа с разными шаблонами: от простых до самых сложных. Мы пройдемся по всем нюансам работы с шаблонами.
Продолжительность: 2:40:10
Качество видео: PCRec
Видео: AVC/H.264, 1280x720, ~2107 Kbps
Аудио: AAC, 2 ch, 258 Kbps, 48.0 KHz, VBR

Mediainfo:

Общее
Полное имя : D:\1\Создание видео в After Effects на основе шаблонов (2016)\1.Введение\Введение.mp4
Формат : MPEG-4
Профиль формата : Base Media
Идентификатор кодека : isom (isom/iso2/mp41)
Размер файла : 100 Мбайт
Продолжительность : 6 м. 39 с.
Режим общего битрейта : Переменный
Общий поток : 2107 Кбит/сек
Трек/Положение : 1
Дата записи : 2016
Программа кодирования : Lavf57.26.100
Обложка : Yes
Примечание : www.dvdvideosoft.com
Видео
Идентификатор : 1
Формат : MPEG-4 Visual
Профиль формата : Simple@L1
Параметр BVOP формата : Нет
Параметр QPel формата : Нет
Параметр GMC формата : Без точки перехода
Параметр матрицы формата : Default (H.263)
Идентификатор кодека : 20
Продолжительность : 6 м. 38 с.
Вид битрейта : Переменный
Битрейт : 1857 Кбит/сек
Максимальный битрейт : 4000 Кбит/сек
Ширина : 1280 пикселей
Высота : 720 пикселей
Соотношение сторон : 16:9
Режим частоты кадров : Постоянный
Частота кадров : 30,000 кадров/сек
Цветовое пространство : YUV
Субдискретизация насыщенности : 4:2:0
Битовая глубина : 8 бит
Тип развёртки : Прогрессивная
Метод сжатия : С потерями
Бит/(Пиксели*Кадры) : 0.067
Размер потока : 88,3 Мбайт (88%)
Библиотека кодирования : Lavc57.27.100
Язык : English
Аудио
Идентификатор : 2
Формат : AAC
Формат/Информация : Advanced Audio Codec
Профиль формата : LC
Идентификатор кодека : 40
Продолжительность : 6 м. 39 с.
Duration_LastFrame : -7 мс.
Вид битрейта : Переменный
Битрейт : 243 Кбит/сек
Максимальный битрейт : 256 Кбит/сек
Каналы : 2 канала
Расположение каналов : Front: L R
Частота : 48,0 КГц
Частота кадров : 46,875 кадров/сек (1024 spf)
Метод сжатия : С потерями
Размер потока : 11,6 Мбайт (12%)
Язык : English
Default : Да
Alternate group : 1

Содержание курса:

1) Введение. Рассмотрим что стоит посмотреть из курса, в зависимости от вашего уровня владения After Effects.
2) Редактирование шаблонов интро. Рассмотрим большинство нюансов по редактированию шаблонов интро на 4-х примерах.
3) Редактирование шаблонов фото- и видео-альбомов. Рассмотрим особенности работы с альбомами.
4) Редактирование презентаций. Поймем, что есть необычного в презентациях и в каком порядке с ними нужно работать.
5) Редактирование рекламных и промо-роликов. Как построить продающую историю на шаблоне и как правильно сделать озвучку.
6) Работа со сложными проектами (explainer, наборы, нестандартные шаблоны). Что нужно изучить, чтобы работать с ними и как это сделать наилучшим образом.
7) Видеогид по базе шаблонов. Пройдемся по категориям, на которые разбиты шаблоны и дадим характеристику по каждой из них.

База шаблонов:

МЕГА-бонус: Рассортированная база >1200 шаблонов с фото- и видео-превью.
300 Гб залитых в облако mail, любой шаблон скачивается от нескольких секунд до нескольких минут. Не требуется все скачивать и забивать жесткий диск! Просто скачивайте то, что нужно и когда нужно.
Скриншоты:

[Цитировать]

Интересно, никто не выкачал шаблоны с облака?
А то на облаках теперь все пусто!

[Цитировать]



Показать сообщения:    

Текущее время: 10-Дек 19:43

Часовой пояс: UTC + 3


Вы не можете начинать темы
Вы не можете отвечать на сообщения
Вы не можете редактировать свои сообщения
Вы не можете удалять свои сообщения
Вы не можете голосовать в опросах
Вы не можете прикреплять файлы к сообщениям
Вы не можете скачивать файлы

!ВНИМАНИЕ!
Сайт не предоставляет электронные версии произведений, а занимается лишь коллекционированием и каталогизацией ссылок, присылаемых и публикуемых на форуме нашими читателями. Если вы являетесь правообладателем какого-либо представленного материала и не желаете, чтобы ссылка на него находилась в нашем каталоге, свяжитесь с нами, и мы незамедлительно удалим ее. Файлы для обмена на трекере предоставлены пользователями сайта, и администрация не несет ответственности за их содержание. Просьба не заливать файлы, защищенные авторскими правами, а также файлы нелегального содержания!