[ Сегодня идет свободное скачивание без начисления Download ]


Статистика раздачи
Качаю: [ 1 ]
Скачал: [ 19 ]
 
   
 
Top  
 
 
Специалист | Основы администрирования СУБД PostgreSQL - Уровень 1 (2016) WEBRip - Автор (режиссер): Владислав Перлин
Производство: Специалист
Жанр: программирование
Описание:
PostgreSQL Administration Basics
PostgreSQL- это современная объектно-реляционная система управления базами данных. PostgreSQL является пионером во многих аспектах, которые стали доступны в некоторых коммерческих СУБД много позже.
PostgreSQL- это свободное программное обеспечение. PostgreSQL поддерживает большую часть стандарта SQL и предлагает множество современных возможностей.
На курсе изучается установка программного обеспечения и сопровождение базы данных PostgreSQL. Вы узнаете, как создается база данных, изучите средства эффективного управления компонентами базы данных.
Курс предусматривает практические занятия. Курс читается на платформе Linux. Для слушателей опыт работы с Linux не является обязательным. Также рассматриваются основные особенности администрирования PostgreSQL под управлением OC семейства Windows.
По окончании курса Вы будете уметь:
Устанавливать программное обеспечение и конфигурировать базу данных PostgreSQL
Управлять пользователями
Управлять структурами хранения
Резервировать и восстанавливать базу данных
Продолжительность курса - 40 ак. ч.
Продолжительность: 24:49:09
Качество видео: WEBRip
Видео: AVC/H.264, 960x720, ~200 kbps
Аудио: AAC, 2 ch, 73,5 kbps, VBR

Mediainfo:

Формат : MPEG-4
Профиль формата : Base Media / Version 2
Идентификатор кодека : mp42 (mp42/mp41/isom/avc1)
Размер файла : 124 Мбайт
Продолжительность : 1 ч. 2 м.
Режим общего битрейта : Переменный
Общий поток : 277 Кбит/сек
Дата кодирования : UTC 2016-02-01 06:56:57
Дата пометки : UTC 2016-02-01 06:56:57
Видео
Идентификатор : 1
Формат : AVC
Формат/Информация : Advanced Video Codec
Профиль формата : High@L3.1
Параметр CABAC формата : Да
Параметр ReFrames формата : 5 кадров
Идентификатор кодека : avc1
Идентификатор кодека/Информация : Advanced Video Coding
Продолжительность : 1 ч. 2 м.
Битрейт : 200 Кбит/сек
Ширина : 960 пикселей
Высота : 720 пикселей
Соотношение сторон : 4:3
Режим частоты кадров : Постоянный
Частота кадров : 21,537 кадра/сек
Цветовое пространство : YUV
Субдискретизация насыщенности : 4:2:0
Битовая глубина : 8 бит
Тип развёртки : Прогрессивная
Бит/(Пиксели*Кадры) : 0.013
Размер потока : 89,3 Мбайт (72%)
Библиотека кодирования : x264 core 148 r11 a01e339
Настройки программы : cabac=1 / ref=5 / deblock=1:0:0 / analyse=0x3:0x113 / me=umh / subme=8 / psy=1 / psy_rd=1.00:0.00 / mixed_ref=1 / me_range=16 / chroma_me=1 / trellis=1 / 8x8dct=1 / cqm=0 / deadzone=21,11 / fast_pskip=1 / chroma_qp_offset=-2 / threads=22 / lookahead_threads=3 / sliced_threads=0 / nr=0 / decimate=1 / interlaced=0 / bluray_compat=0 / stitchable=1 / constrained_intra=0 / bframes=3 / b_pyramid=2 / b_adapt=2 / b_bias=0 / direct=3 / weightb=1 / open_gop=0 / weightp=2 / keyint=infinite / keyint_min=21 / scenecut=40 / intra_refresh=0 / rc_lookahead=50 / rc=2pass / mbtree=1 / bitrate=200 / ratetol=1.0 / qcomp=0.60 / qpmin=5 / qpmax=69 / qpstep=4 / cplxblur=20.0 / qblur=0.5 / vbv_maxrate=2750 / vbv_bufsize=7500 / nal_hrd=none / filler=0 / ip_ratio=1.40 / aq=1:1.00
Дата кодирования : UTC 2016-02-01 06:56:57
Дата пометки : UTC 2016-02-01 06:56:57
Цветовой диапазон : Limited
Основные цвета : BT.709
Характеристики трансфера : BT.709
Коэффициенты матрицы : BT.709
Аудио
Идентификатор : 2
Формат : AAC
Формат/Информация : Advanced Audio Codec
Профиль формата : LC
Идентификатор кодека : 40
Продолжительность : 1 ч. 2 м.
Вид битрейта : Переменный
Битрейт : 73,5 Кбит/сек
Каналы : 2 канала
Channel(s)_Original : 1 канал
Расположение каналов : Front: C
Частота : 48,0 КГц
Частота кадров : 46,875 кадров/сек (1024 spf)
Метод сжатия : С потерями
Размер потока : 32,8 Мбайт (27%)
Дата кодирования : UTC 2016-02-01 06:56:57
Дата пометки : UTC 2016-02-01 06:56:57

Дополнительная информация:

Модуль 1. Установка PostgreSQL
Штатная установка в системе Linux.
Штатная установка в системе Windows.
Portable установка в системе Windows.
Модуль 2. Первоначальная настройка
Файлы конфигураций.
Основные параметры сервера.
Общие параметры доступа
Модуль 3. Управление пользователями
Создание пользователя.
Общие права пользователя.
Роли и их разновидности.
Аутентификация.
Модуль 4. Управление базами данных (часть первая)
Создание базы данных.
Основные параметры базы данных.
Установка штатных расширений.
Пространство таблиц (tablespace)
Модуль 5. Управление базами данных (часть вторая)
Пользовательские права в базе данных.
Управление объектами в базе данных.
Права пользователя относительно объектов.
Режимы доступа для функций и триггеров.
Шаблон базы данных.
Модуль 6. Регламентное обслуживание базы данных
Очистка мусора (вакуумирование)
Перестройка индексов.
Перестройка объектов.
Понятие миграции. Основные реализации миграций.
Модуль 7. Резервное копирование
Дамп.
Резервное копирование на уровне файловой системы.
Модуль 8. Локализации и сопоставления
Локали.
Сопоставления.
Таблицы символов.
Модуль 9. Мониторинг базы данных
Мониторинг использования диска.
Сбор статистики
Модуль 10. Репликации и балансировка нагрузки
specialist.ru/course/postgres
Скриншоты:

[Цитировать]



Показать сообщения:    

Текущее время: 07-Дек 19:18

Часовой пояс: UTC + 3


Вы не можете начинать темы
Вы не можете отвечать на сообщения
Вы не можете редактировать свои сообщения
Вы не можете удалять свои сообщения
Вы не можете голосовать в опросах
Вы не можете прикреплять файлы к сообщениям
Вы не можете скачивать файлы

!ВНИМАНИЕ!
Сайт не предоставляет электронные версии произведений, а занимается лишь коллекционированием и каталогизацией ссылок, присылаемых и публикуемых на форуме нашими читателями. Если вы являетесь правообладателем какого-либо представленного материала и не желаете, чтобы ссылка на него находилась в нашем каталоге, свяжитесь с нами, и мы незамедлительно удалим ее. Файлы для обмена на трекере предоставлены пользователями сайта, и администрация не несет ответственности за их содержание. Просьба не заливать файлы, защищенные авторскими правами, а также файлы нелегального содержания!