[ Сегодня идет свободное скачивание без начисления Download ]


Статистика раздачи
Скачал: [ 5 ]
 
   
 
Top  
 
 
Специалист | Построение системы безопасности персональных данных в организации (2015) PCRec - Автор (режиссер): Специалист
Жанр: Информационная безопасность
Описание:
Необходимость обеспечения безопасности персональных данных в наше время — объективная реальность. Информация о человеке всегда имела большую ценность, но сегодня она превратилась в самый дорогой товар. Безопасность персональных данных обеспечивается и регулируется федеральным законом N 152-ФЗ «О персональных данных», ведь информация в руках мошенника превращается в орудие преступления, в руках уволенного сотрудника — в средство мщения, в руках инсайдера — товар для продажи конкуренту. Именно поэтому персональные данные нуждаются в самой серьезной защите.
Аудитория курса:
- Сотрудники ИТ подразделений обслуживающие информационные системы, обрабатывающие персональные данные – смогут узнать о правилах обработки ПДн
- Сотрудники подразделений ИБ ответственные за обработку персональных данных – смогут понять как точно определить перечень необходимых к выполнению требований по защите ПДн и лежащую на них ответственность.
- Сотрудники HR служб предприятий – узнать о дополнительных требованиях за рамками ТК выполнять которые им необходимо в целях обеспечения законности обработки ПДн
- Разработчики информационных систем и программных продуктов – смогут узнать, как на стадии проектирования/разработки возможно снизить дальнейшие требования по защите и избежать излишних трат на защиту не снижая уровня защищённости ПДн.

По окончании курса Вы будете уметь:

- Проводить процессы обработки персональных данных в соответствие требованиям Законодательства
- Построить эффективную систему защиты персональных данных
- Подтверждать выполнения требований по защите персональных данных при проверках регуляторами

Программа курса:

Модуль 1. Нормативно правовая база
Федеральное Законодательство
Постановления правительства
Нормативные документы регулятора в области защиты персональных данных
Нормативные документы регуляторов в области технической защиты информации по вопросам защиты персональных данных
Модуль 2. Приведение процессов обработки персональных данных в соответствие требованиям Законодательства
Инвентаризация процессов обработки персональных данных
Определение видов обработки и требований к ним
Модуль 3. Порядок проведения работ по созданию системы защиты персональных данных
Определение требуемого уровня защищённости персональных данных при их обработке в информационных системах
Определение требуемых в соответствии с определённым уровнем защищённости механизмов защиты.
Построение модели угроз
Определение требований по защите персональных данных. Выбор технологий защиты:
управления доступом
регистрации и учёта
обеспечения целостности
криптографической защиты
антивирусной защиты
обнаружения вторжений
защита виртуальных сред
Модуль 4. Обзор технических средств защиты информации
Обзор российского рынка технических средств защиты.
Сертифицированные средства защиты информации.
Модуль 5. Подтверждение выполнения требований
Декларирование соответствия.
Аттестация систем защиты персональных данных.
Модуль 6. Проверки регуляторов
Федеральное законодательство определяющее порядок проведения проверок регуляторами.
Плановый и внеплановые проверки.
Права и обязанности проверяемого и проверяющего.
Качество видео: PCRec
Запись 2012 (неполная, только первый день) - Кочуров А.М.
Видео: WMV3 1280x1024 29.97fps 161 Kbps
Аудио: Windows Media Audio 44100Hz 1 channels 48kbps
Продолжительность: 04:35:41

Mediainfo:

Общее
Полное имя                               : C:\persod_(Специалист)\Кочуров\2012-\01.PERSOD.2012-02-05.wmv
Формат                                   : Windows Media
Размер файла                             : 323 Мбайт
Продолжительность                        : 4 ч. 35 м.
Режим общего битрейта                    : Переменный
Общий поток                              : 164 Кбит/сек
Максимальный общий битрейт               : 32,4 Мбит/сек
Дата кодирования                         : UTC 2016-06-22 06:54:07.540
Программа кодирования                    :  6.0 Build 1259 / GoToMeeting
BitRateFrom the writer                   : 156162
Audio samples                            : 232073
Video samples                            : 5907
recording time                           : Ср, 22 июн 2016 10:12:50
Видео
Идентификатор                            : 2
Формат                                   : VC-1
Профиль формата                          : MP@HL
Идентификатор кодека                     : WMV3
Идентификатор кодека/Информация          : Windows Media Video 9
Идентификатор кодека/Подсказка           : WMV3
Описание кодека                          : Windows Media Video 9
Продолжительность                        : 4 ч. 35 м.
Вид битрейта                             : Переменный
Битрейт                                  : 10,6 Мбит/сек
Ширина                                   : 1280 пикселей
Высота                                   : 1024 пикселя
Соотношение сторон                       : 5:4
Частота кадров                           : 29,970 кадров/сек
Цветовое пространство                    : YUV
Субдискретизация насыщенности            : 4:2:0
Битовая глубина                          : 8 бит
Тип развёртки                            : Прогрессивная
Метод сжатия                             : С потерями
Бит/(Пиксели*Кадры)                      : 0.270
Размер потока                            : 20,4 Гбайт
Аудио
Идентификатор                            : 1
Формат                                   : WMA
Версия формата                           : Version 2
Идентификатор кодека                     : 161
Идентификатор кодека/Информация          : Windows Media Audio
Описание кодека                          : Windows Media Audio 9.2 -  48 kbps, 44 kHz, mono 1-pass CBR
Продолжительность                        : 4 ч. 35 м.
Вид битрейта                             : Постоянный
Битрейт                                  : 48,0 Кбит/сек
Каналы                                   : 1 канал
Частота                                  : 44,1 КГц
Битовая глубина                          : 16 бит
Размер потока                            : 94,7 Мбайт (29%)
Скриншоты 2012 - Кочуров А.М.:
Запись 2015 - Гончарова Э.Р.
Видео: WMV3 1024x768 29.97fps 127 Kbps
Аудио: Windows Media Audio 44100Hz 1 channels 48kbps
Продолжительность: 07:33:43

Mediainfo:

Общее
Полное имя                               : C:\persod_(Специалист)\Гончарова\2015\01.PERSOD.2015-12-20.wmv
Формат                                   : Windows Media
Размер файла                             : 260 Мбайт
Продолжительность                        : 4 ч. 45 м.
Режим общего битрейта                    : Переменный
Общий поток                              : 127 Кбит/сек
Максимальный общий битрейт               : 18,3 Мбит/сек
Дата кодирования                         : UTC 2016-06-08 12:23:27.763
Программа кодирования                    :  6.0 Build 1259 / GoToMeeting
BitRateFrom the writer                   : 121296
Audio samples                            : 255370
Video samples                            : 10626
recording time                           : Ср, 08 июн 2016 15:44:49
Видео
Идентификатор                            : 2
Формат                                   : VC-1
Профиль формата                          : MP@HL
Идентификатор кодека                     : WMV3
Идентификатор кодека/Информация          : Windows Media Video 9
Идентификатор кодека/Подсказка           : WMV3
Описание кодека                          : Windows Media Video 9
Вид битрейта                             : Переменный
Битрейт                                  : 4285 Кбит/сек
Ширина                                   : 1024 пикселя
Высота                                   : 768 пикселей
Соотношение сторон                       : 4:3
Режим частоты кадров                     : Переменный
Номинальная частота кадров               : 29,970 кадров/сек
Цветовое пространство                    : YUV
Субдискретизация насыщенности            : 4:2:0
Битовая глубина                          : 8 бит
Тип развёртки                            : Прогрессивная
Метод сжатия                             : С потерями
Аудио
Идентификатор                            : 1
Формат                                   : WMA
Версия формата                           : Version 2
Идентификатор кодека                     : 161
Идентификатор кодека/Информация          : Windows Media Audio
Описание кодека                          : Windows Media Audio 9.2 -  48 kbps, 44 kHz, mono 1-pass CBR
Продолжительность                        : 4 ч. 45 м.
Вид битрейта                             : Постоянный
Битрейт                                  : 48,0 Кбит/сек
Каналы                                   : 1 канал
Частота                                  : 44,1 КГц
Битовая глубина                          : 16 бит
Размер потока                            : 98,0 Мбайт (38%)
Скриншоты 2015 - Гончарова Э.Р.:

[Цитировать]



Показать сообщения:    

Текущее время: 08-Дек 08:53

Часовой пояс: UTC + 3


Вы не можете начинать темы
Вы не можете отвечать на сообщения
Вы не можете редактировать свои сообщения
Вы не можете удалять свои сообщения
Вы не можете голосовать в опросах
Вы не можете прикреплять файлы к сообщениям
Вы не можете скачивать файлы

!ВНИМАНИЕ!
Сайт не предоставляет электронные версии произведений, а занимается лишь коллекционированием и каталогизацией ссылок, присылаемых и публикуемых на форуме нашими читателями. Если вы являетесь правообладателем какого-либо представленного материала и не желаете, чтобы ссылка на него находилась в нашем каталоге, свяжитесь с нами, и мы незамедлительно удалим ее. Файлы для обмена на трекере предоставлены пользователями сайта, и администрация не несет ответственности за их содержание. Просьба не заливать файлы, защищенные авторскими правами, а также файлы нелегального содержания!