[ Сегодня идет свободное скачивание без начисления Download ]


Статистика раздачи
Скачал: [ 1 ]
 
   
 
Top  
 
 
Дьявол в голубом платье / Devil in a Blue Dress Информация о фильме
Название: Дьявол в голубом платье
Оригинальное название: Devil in a Blue Dress
Год выпуска: 1995
Жанр: Триллер, драма, криминал, детектив
Выпущено: США, TriStar Pictures, Clinica Estetico, Mundy Lane Entertainment
Продолжительность: 01:41:17
Перевод: Профессиональный многоголосый, авторский
Режиссер: Карл Франклин
В ролях: Дензел Вашингтон, Том Сайзмор, Дженнифер Билз, Дон Чидл, Мори Чайкин, Терри Кинни, Мел Уинклер, Альберт Холл, Лиза Николь Карсон, Джернард Буркс, Дэвид Волос-Фонтено, Джон Роселиус, Бо Старр, Стивен Рандаццо, Скотт Линкольн, Бэрри Шебака Хенли, Л. Скотт Колдуэлл, Ник Корелло, Кенни Эндосо, Джозеф Лэтимор, Рене Хамфри, Дебора Лэйси
О фильме: Оказывается, выжить на полях сражений гораздо легче, чем в послевоенном Лос-Анджелесе. Ветеран Второй мировой Изи Роулинс потерял работу и вскоре может лишиться и крыши над головой. Поэтому, когда ему предлагают выступить в роли частного детектива и найти таинственную красавицу, Изи сразу соглашается. 100 долларов за такое простое дело – более чем выгодная сделка. Однако умереть за 100 долларов не входило в его планы. Расследование приводит Роулинса в непредсказуемый мир большой политики, где человеческая жизнь не стоит ровным счетом ничего, – он и не мог предположить, что настоящая война начнётся для него после войны.
Сэмпл
Файл
Качество: BDRip (1080p)
Видео: MPEG-4 AVC, 14857 Кбит/с, 1920х1038, 23.976 кадр/с
Аудио #1: Русский (AC3, 6 ch, 448 Кбит/с) Профессиональный многоголосый «Видеосервис»
Аудио #2: Русский (AC3, 2 ch, 192 Кбит/с) Профессиональный многоголосый «Кинопоказ HD»
Аудио #3: Русский (AC3, 2 ch, 192 Кбит/с) Профессиональный многоголосый «СТС»
Аудио #4: Русский (AC3, 2 ch, 192 Кбит/с) Авторский (Пётр Карцев)
Аудио #5: Украинский (AC3, 2 ch, 192 Кбит/с) Профессиональный многоголосый «Iнтер»
Аудио #6: Английский (AC3, 6 ch, 384 Кбит/с)
Субтитры: Английские (SDH)

МедиаИнфо

Формат : Matroska
Версия формата : Version 2
Размер файла : 11,6 Гбайт
Продолжительность : 1 ч. 41 м.
Общий поток : 16,5 Мбит/сек
Название фильма : ~V ad~
Дата кодирования : UTC 2016-06-22 22:02:47
Программа кодирования : mkvmerge v6.5.0 ('Isn't she lovely') built on Oct 20 2013 12:50:05
Библиотека кодирования : libebml v1.3.0 + libmatroska v1.4.1
Обложка : Yes
Attachments : cover.png
Видео
Идентификатор : 1
Формат : AVC
Формат/Информация : Advanced Video Codec
Профиль формата : [email protected]
Параметр CABAC формата : Да
Параметр ReFrames формата : 4 кадра
Идентификатор кодека : V_MPEG4/ISO/AVC
Продолжительность : 1 ч. 41 м.
Битрейт : 14,9 Мбит/сек
Ширина : 1920 пикселей
Высота : 1038 пикселей
Соотношение сторон : 1,85:1
Режим частоты кадров : Постоянный
Частота кадров : 23,976 (24000/1001) кадра/сек
Цветовое пространство : YUV
Субдискретизация насыщенности : 4:2:0
Битовая глубина : 8 бит
Тип развёртки : Прогрессивная
Бит/(Пиксели*Кадры) : 0.311
Размер потока : 10,3 Гбайт (88%)
Заголовок : ~V~
Библиотека кодирования : x264 core 148 r2579 73ae2d1
Настройки программы : cabac=1 / ref=4 / deblock=1:-3:-3 / analyse=0x3:0x133 / me=umh / subme=11 / psy=1 / psy_rd=1.00:0.00 / mixed_ref=1 / me_range=32 / chroma_me=1 / trellis=2 / 8x8dct=1 / cqm=0 / deadzone=21,11 / fast_pskip=0 / chroma_qp_offset=-2 / threads=12 / lookahead_threads=1 / sliced_threads=0 / nr=0 / decimate=0 / interlaced=0 / bluray_compat=0 / constrained_intra=0 / bframes=9 / b_pyramid=2 / b_adapt=2 / b_bias=0 / direct=3 / weightb=1 / open_gop=0 / weightp=2 / keyint=240 / keyint_min=23 / scenecut=40 / intra_refresh=0 / rc=2pass / mbtree=0 / bitrate=14857 / ratetol=1.0 / qcomp=0.60 / qpmin=0 / qpmax=69 / qpstep=4 / cplxblur=20.0 / qblur=0.5 / ip_ratio=1.40 / pb_ratio=1.30 / aq=3:1.10
Язык : English
Default : Да
Forced : Нет
Аудио #1
Идентификатор : 2
Формат : AC-3
Формат/Информация : Audio Coding 3
Расширение режима : CM (complete main)
Параметр Endianness формата : Big
Идентификатор кодека : A_AC3
Продолжительность : 1 ч. 41 м.
Вид битрейта : Постоянный
Битрейт : 448 Кбит/сек
Каналы : 6 каналов
Расположение каналов : Front: L C R, Side: L R, LFE
Частота : 48,0 КГц
Частота кадров : 31,250 кадров/сек (1536 spf)
Метод сжатия : С потерями
Размер потока : 325 Мбайт (3%)
Заголовок : MVO[Видеосервис]
Язык : Russian
Default : Да
Forced : Да
Аудио #2
Идентификатор : 3
Формат : AC-3
Формат/Информация : Audio Coding 3
Расширение режима : CM (complete main)
Параметр Endianness формата : Big
Идентификатор кодека : A_AC3
Продолжительность : 1 ч. 41 м.
Вид битрейта : Постоянный
Битрейт : 192 Кбит/сек
Каналы : 2 канала
Расположение каналов : Front: L R
Частота : 48,0 КГц
Частота кадров : 31,250 кадров/сек (1536 spf)
Метод сжатия : С потерями
Размер потока : 139 Мбайт (1%)
Заголовок : MVO[Кинопоказ HD]
Язык : Russian
Default : Нет
Forced : Нет
Аудио #3
Идентификатор : 4
Формат : AC-3
Формат/Информация : Audio Coding 3
Расширение режима : CM (complete main)
Параметр Endianness формата : Big
Идентификатор кодека : A_AC3
Продолжительность : 1 ч. 41 м.
Вид битрейта : Постоянный
Битрейт : 192 Кбит/сек
Каналы : 2 канала
Расположение каналов : Front: L R
Частота : 48,0 КГц
Частота кадров : 31,250 кадров/сек (1536 spf)
Метод сжатия : С потерями
Размер потока : 139 Мбайт (1%)
Заголовок : MVO[CTC]
Язык : Russian
Default : Нет
Forced : Нет
Аудио #4
Идентификатор : 5
Формат : AC-3
Формат/Информация : Audio Coding 3
Расширение режима : CM (complete main)
Параметр Endianness формата : Big
Идентификатор кодека : A_AC3
Продолжительность : 1 ч. 41 м.
Вид битрейта : Постоянный
Битрейт : 192 Кбит/сек
Каналы : 2 канала
Расположение каналов : Front: L R
Частота : 48,0 КГц
Частота кадров : 31,250 кадров/сек (1536 spf)
Метод сжатия : С потерями
Размер потока : 139 Мбайт (1%)
Заголовок : VO[Пётр Карцев]
Default : Нет
Forced : Нет
Аудио #5
Идентификатор : 6
Формат : AC-3
Формат/Информация : Audio Coding 3
Расширение режима : CM (complete main)
Параметр Endianness формата : Big
Идентификатор кодека : A_AC3
Продолжительность : 1 ч. 41 м.
Вид битрейта : Постоянный
Битрейт : 192 Кбит/сек
Каналы : 2 канала
Расположение каналов : Front: L R
Частота : 48,0 КГц
Частота кадров : 31,250 кадров/сек (1536 spf)
Метод сжатия : С потерями
Размер потока : 139 Мбайт (1%)
Заголовок : MVO[Iнтep]
Язык : Ukrainian
Default : Нет
Forced : Нет
Аудио #6
Идентификатор : 7
Формат : AC-3
Формат/Информация : Audio Coding 3
Расширение режима : CM (complete main)
Параметр Endianness формата : Big
Идентификатор кодека : A_AC3
Продолжительность : 1 ч. 41 м.
Вид битрейта : Постоянный
Битрейт : 384 Кбит/сек
Каналы : 6 каналов
Расположение каналов : Front: L C R, Side: L R, LFE
Частота : 48,0 КГц
Частота кадров : 31,250 кадров/сек (1536 spf)
Метод сжатия : С потерями
Размер потока : 278 Мбайт (2%)
Язык : English
Default : Нет
Forced : Нет
Текст
Идентификатор : 8
Формат : UTF-8
Идентификатор кодека : S_TEXT/UTF8
Идентификатор кодека/Информация : UTF-8 Plain Text
Заголовок : SHD
Язык : English
Default : Нет
Forced : Нет
Меню
00:00:00.000 : en:Chapter 1
00:04:31.229 : en:Chapter 2
00:08:57.537 : en:Chapter 3
00:13:01.572 : en:Chapter 4
00:17:46.315 : en:Chapter 5
00:21:40.048 : en:Chapter 6
00:24:15.036 : en:Chapter 7
00:30:39.337 : en:Chapter 8
00:35:09.107 : en:Chapter 9
00:39:19.482 : en:Chapter 10
00:42:10.528 : en:Chapter 11
00:46:37.252 : en:Chapter 12
00:51:36.343 : en:Chapter 13
00:56:50.698 : en:Chapter 14
00:58:30.173 : en:Chapter 15
01:02:53.686 : en:Chapter 16
01:08:15.800 : en:Chapter 17
01:12:44.109 : en:Chapter 18
01:14:45.314 : en:Chapter 19
01:20:33.286 : en:Chapter 20
01:24:26.394 : en:Chapter 21
01:29:09.177 : en:Chapter 22
01:34:37.088 : en:Chapter 23
01:37:54.702 : en:Chapter 24
01:41:17.863 : en:Chapter 25

х264

x264 [info]: frame I:684 Avg QP:17.01 size:227178
x264 [info]: frame P:25870 Avg QP:19.44 size:113929
x264 [info]: frame B:119170 Avg QP:21.85 size: 68645

Скриншоты


[Цитировать]



Показать сообщения:    

Текущее время: 05-Дек 01:30

Часовой пояс: UTC + 3


Вы не можете начинать темы
Вы не можете отвечать на сообщения
Вы не можете редактировать свои сообщения
Вы не можете удалять свои сообщения
Вы не можете голосовать в опросах
Вы не можете прикреплять файлы к сообщениям
Вы не можете скачивать файлы

!ВНИМАНИЕ!
Сайт не предоставляет электронные версии произведений, а занимается лишь коллекционированием и каталогизацией ссылок, присылаемых и публикуемых на форуме нашими читателями. Если вы являетесь правообладателем какого-либо представленного материала и не желаете, чтобы ссылка на него находилась в нашем каталоге, свяжитесь с нами, и мы незамедлительно удалим ее. Файлы для обмена на трекере предоставлены пользователями сайта, и администрация не несет ответственности за их содержание. Просьба не заливать файлы, защищенные авторскими правами, а также файлы нелегального содержания!