[ Сегодня идет свободное скачивание без начисления Download ]


Статистика раздачи
Нет
 
   
 
Top  
 
 
Монстры на каникулах 3D / Hotel Transylvania 3D«Будет страшно смешно»
Год выпуска: 2012
Страна: США
Производство: Columbia Pictures, Sony Pictures Animation
Жанр: Мультфильм, Комедия, Семейный
Режиссер: Генндий Тартаковский / Genndy Tartakovsky
Роли озвучивали (дублировали):
Дракула - Адам Сэндлер (Сергей Бурунов)
Джонатан - Энди Сэмберг (Александр Пушной)
Мэйвис - Селена Гомес (Полина Гагарина)
Франкенштейн - Кевин Джеймс (Михаил Шац)
Юнис - Фрэн Дрешер
Уэйн - Стив Бушеми (Дмитрий Полонский)
Ванда - Молли Шеннон (Татьяна Лазарева)
Гриффин - Дэвид Спейд
Мюррей - Си-Ло (Алексей Колган)
Квазимодо - Джон Ловиц (Никита Прозоровский)
Одежда Армора - Брайан Джордж (Владимир Антоник)
Флай - Крис Парнелл (Диомид Виноградов)
Псевдо Дракула / Марти - Роберт Шмигель (Даниил Эльдаров)

Перевод: Профессиональный (дублированный) [Чистый звук]
Субтитры: Отсутствуют
Описание: Граф Дракула для себя и своей любимой дочки построил хорошо укрытый от посторонних глаз отель, куда монстры со всего света приезжают отдохнуть от семейных забот, повседневной суеты и, конечно… людей. Но вездесущие американские туристы проникают и сюда.

Знаете ли Вы, что...

Адрес отеля: Румыния, Умбре, улица Трансильванская, дом 666 (его можно увидеть на обратной стороне путеводителей, которые Дракула раздает гостям).
Микрофон на вечеринке Мэвис точь-в-точь такой же, как и в короткометражном мультфильме Толстяки (2002), получившем премию «Оскар»®. Sony Pictures Animation выпустила короткометражку 10 лет назад.
За основу для создания объемной прически Юнис была взята губка для мытья посуды.
Энди Сэмберг выступил соавтором текста и сам спел песню «Sweet 118». Он записал ее в своем кабинете студии Saturday Night Live и проиграл Мишель Мурдокке по телефону во время разговора.
Часы Уэйна на самом деле показывают не время, а фазы Луны.
На создание технологии «вязания» свитеров гремлинов Джорджа и Джины художников вдохновила похожая технология создания свитера Артура в мультфильме «Секретная служба Санта-Клауса» (2011).
Майли Сайрус должна была озвучить Мэйвис, но отказалась, чтобы сосредоточиться на других проектах, и ее место заняла Селена Гомес.
Это первый художественный фильм режиссера Генндия Тартаковского.
Дата выхода фильма, 28 сентября — Всемирный день борьбы с бешенством.
Пещера, в которую Мэйвис приводит Джонни, по форме напоминает лицо из мюзикла «Призрак Оперы».
Среди украшений на стене комнаты Мэйвис есть плакат, на котором девушка очень сильно напоминает озвучивающую ее Селену Гомес

Техн. детали съёмки

Формат изображения: 1.85 : 1
Формат копии: 35 mm (spherical) (Kodak Vision 2383)
D-Cinema (also 3-D version)
Digital (Digital Cinema Package DCP)
Изображение: чёрно-белое, цветное

Доп. информация: Проверено на встроенном плеере телевизора LG 47LW575S.
Качество: BDRip 1080p
Продолжительность: 01:31:30 час.
Формат / Контейнер: MKV
Формат 3D: Half OverUnder / Вертикальная анаморфная стереопара
Порядок ракурсов: левый ракурс первый
Видео кодек: H.264
Аудио кодек: AС3
Видео: AVC / 1920х1080p / 16:9 / 23.976 fps / 9475 Kbps / 0.191 bit/pix
Аудио: Русский / AC3 / 48 KHz / 2.0 ch / 192 Kbps

Media Info

General
Unique ID                                : 179212372774848960162811159949801917223 (0x86D30C29D2D51A579514F587BD3F8B27)
Complete name                            : F:\3D Мультфильмы\Монстры на каникулах (1080p).mkv
Format                                   : Matroska
Format version                           : Version 2
File size                                : 6.31 GiB
Duration                                 : 1h 31mn
Overall bit rate                         : 9 863 Kbps
Encoded date                             : UTC 2013-01-14 03:09:35
Writing application                      : mkvmerge v5.8.0 ('No Sleep / Pillow') built on Sep  2 2012 15:37:04
Writing library                          : libebml v1.2.3 + libmatroska v1.3.0
Video
ID                                       : 1
Format                                   : AVC
Format/Info                              : Advanced Video Codec
Format profile                           : High@L4.1
Format settings, CABAC                   : Yes
Format settings, ReFrames                : 4 frames
Codec ID                                 : V_MPEG4/ISO/AVC
Duration                                 : 1h 31mn
Bit rate                                 : 9 475 Kbps
Width                                    : 1 920 pixels
Height                                   : 1 080 pixels
Display aspect ratio                     : 16:9
Frame rate mode                          : Constant
Frame rate                               : 23.976 fps
Color space                              : YUV
Chroma subsampling                       : 4:2:0
Bit depth                                : 8 bits
Scan type                                : Progressive
Bits/(Pixel*Frame)                       : 0.191
Stream size                              : 6.06 GiB (96%)
Title                                    : BDrip by Ash61
Writing library                          : x264 core 119 r2106 07efeb4
Encoding settings                        : cabac=1 / ref=4 / deblock=1:-3:-3 / analyse=0x3:0x113 / me=umh / subme=9 / psy=1 / psy_rd=1.00:0.15 / mixed_ref=1 / me_range=32 / chroma_me=1 / trellis=2 / 8x8dct=1 / cqm=0 / deadzone=21,11 / fast_pskip=1 / chroma_qp_offset=-3 / threads=12 / sliced_threads=0 / nr=0 / decimate=1 / interlaced=0 / bluray_compat=0 / constrained_intra=0 / bframes=6 / b_pyramid=2 / b_adapt=2 / b_bias=0 / direct=3 / weightb=1 / open_gop=0 / weightp=2 / keyint=250 / keyint_min=23 / scenecut=40 / intra_refresh=0 / rc_lookahead=60 / rc=crf / mbtree=1 / crf=16.0 / qcomp=0.70 / qpmin=0 / qpmax=69 / qpstep=4 / vbv_maxrate=40000 / vbv_bufsize=30000 / crf_max=0.0 / nal_hrd=none / frame-packing=4 / ip_ratio=1.40 / aq=1:0.70
Language                                 : English
Default                                  : Yes
Forced                                   : No
Audio
ID                                       : 2
Format                                   : AC-3
Format/Info                              : Audio Coding 3
Mode extension                           : CM (complete main)
Format settings, Endianness              : Big
Codec ID                                 : A_AC3
Duration                                 : 1h 31mn
Bit rate mode                            : Constant
Bit rate                                 : 192 Kbps
Channel(s)                               : 2 channels
Channel positions                        : Front: L R
Sampling rate                            : 48.0 KHz
Bit depth                                : 16 bits
Compression mode                         : Lossy
Stream size                              : 126 MiB (2%)
Title                                    : Профессиональный (дублированный) [Чистый звук]
Language                                 : Russian
Default                                  : Yes
Forced                                   : No

Скриншоты

[Цитировать]

Топик был перенесен из форума Новинки кинопроката в форум Новинки кинопроката (HD Video)


Summer

Топик был перенесен из форума Новинки кинопроката (HD Video) в форум 3D Мультфильмы

Причина переноса: Это 3D. Я просто фигею! МОДЕРАТОРЫ, куда вы смотрите?
JOKER



Показать сообщения:    

Текущее время: 24-Фев 08:59

Часовой пояс: UTC + 3


Вы не можете начинать темы
Вы не можете отвечать на сообщения
Вы не можете редактировать свои сообщения
Вы не можете удалять свои сообщения
Вы не можете голосовать в опросах
Вы не можете прикреплять файлы к сообщениям
Вы не можете скачивать файлы

!ВНИМАНИЕ!
Сайт не предоставляет электронные версии произведений, а занимается лишь коллекционированием и каталогизацией ссылок, присылаемых и публикуемых на форуме нашими читателями. Если вы являетесь правообладателем какого-либо представленного материала и не желаете, чтобы ссылка на него находилась в нашем каталоге, свяжитесь с нами, и мы незамедлительно удалим ее. Файлы для обмена на трекере предоставлены пользователями сайта, и администрация не несет ответственности за их содержание. Просьба не заливать файлы, защищенные авторскими правами, а также файлы нелегального содержания!