[ Сегодня идет свободное скачивание без начисления Download ]


Статистика раздачи
Буду качать: [ 2 ]
Скачал: [ 11 ]
 
   
 
Top  
 
 
Специалист | JavaScript. Уровень 3. Knockout.js (2015) PCRec - Автор (режиссер): Борисов Игорь Олегович
Производство: Специалист
Жанр: JavaScript, Knockout.js
Описание:
Knockout.js - свободный JavaScript каркас (framework) веб-приложений, реализующий Model-View-ViewModel шаблон. Основными принципами являются:
чёткое разделение доменных данных, компонентов отображения и отображаемых данных
наличие чётко определённого слоя специализированного кода, задающего отношение компонентов отображения
простота использования
Используется для проектирования масштабируемых, управляемых данными пользовательских интерфейсов
На начало 2015 года библиотека была ранее использована на 17018 вебсайтах, и продолжает использоваться на 29039 сайтах, в том числе на 55 из 10 тысяч наиболее популярных, например, на сайте компании Philips.
Курс предназначен для веб-разработчиков, нуждающихся в простом для изучения и использования, но в тоже время мощном каркасе для создания веб-приложений на стороне клиента.
Продолжительность: 06:58:38
Качество видео: PCRec
Видео: AVC/H.264, 936x720, ~373 Kbps
Аудио: AAC, 2 ch, 48.0 KHz, CBR

Mediainfo:

General
Complete name : C:\Users\Пользователь\Desktop\JavaScript. Уровень 3. Knockout.js. [Борисов И.О.]\day1_1.mp4
Format : MPEG-4
Format profile : Base Media / Version 2
Codec ID : mp42
File size : 40.5 MiB
Duration : 12mn 44s
Overall bit rate mode : Variable
Overall bit rate : 444 Kbps
Encoded date : UTC 2015-12-13 12:21:04
Tagged date : UTC 2015-12-13 12:21:04
Video
ID : 1
Format : AVC
Format/Info : Advanced Video Codec
Format profile : High@L3.1
Format settings, CABAC : Yes
Format settings, ReFrames : 5 frames
Codec ID : avc1
Codec ID/Info : Advanced Video Coding
Duration : 12mn 33s
Bit rate : 373 Kbps
Nominal bit rate : 2 500 Kbps
Width : 936 pixels
Height : 720 pixels
Display aspect ratio : 4:3
Frame rate mode : Constant
Frame rate : 16.667 fps
Color space : YUV
Chroma subsampling : 4:2:0
Bit depth : 8 bits
Scan type : Progressive
Bits/(Pixel*Frame) : 0.033
Stream size : 33.5 MiB (83%)
Writing library : x264 core 148 r11 7599210
Encoding settings : cabac=1 / ref=5 / deblock=1:0:0 / analyse=0x3:0x113 / me=umh / subme=8 / psy=1 / psy_rd=1.00:0.00 / mixed_ref=1 / me_range=16 / chroma_me=1 / trellis=1 / 8x8dct=1 / cqm=0 / deadzone=21,11 / fast_pskip=1 / chroma_qp_offset=-2 / threads=22 / lookahead_threads=3 / sliced_threads=0 / nr=0 / decimate=1 / interlaced=0 / bluray_compat=0 / stitchable=1 / constrained_intra=0 / bframes=3 / b_pyramid=2 / b_adapt=2 / b_bias=0 / direct=3 / weightb=1 / open_gop=0 / weightp=2 / keyint=infinite / keyint_min=16 / scenecut=40 / intra_refresh=0 / rc_lookahead=50 / rc=2pass / mbtree=1 / bitrate=2500 / ratetol=1.0 / qcomp=0.60 / qpmin=5 / qpmax=69 / qpstep=4 / cplxblur=20.0 / qblur=0.5 / vbv_maxrate=2750 / vbv_bufsize=7500 / nal_hrd=none / filler=0 / ip_ratio=1.40 / aq=1:1.00
Encoded date : UTC 2015-12-13 12:21:04
Tagged date : UTC 2015-12-13 12:21:04
Color primaries : BT.709
Transfer characteristics : BT.709
Matrix coefficients : BT.709
Audio
ID : 2
Format : AAC
Format/Info : Advanced Audio Codec
Format profile : LC
Codec ID : 40
Duration : 12mn 44s
Bit rate mode : Variable
Bit rate : 73.5 Kbps
Channel count : 2 channels
Original Channel count : 1 channel
Channel positions : Front: C
Sampling rate : 48.0 KHz
Compression mode : Lossy
Delay relative to video : 120ms
Stream size : 6.70 MiB (17%)
Encoded date : UTC 2015-12-13 12:21:04
Tagged date : UTC 2015-12-13 12:21:04
Скриншоты:

[Цитировать]



Показать сообщения:    

Текущее время: 11-Дек 16:57

Часовой пояс: UTC + 3


Вы не можете начинать темы
Вы не можете отвечать на сообщения
Вы не можете редактировать свои сообщения
Вы не можете удалять свои сообщения
Вы не можете голосовать в опросах
Вы не можете прикреплять файлы к сообщениям
Вы не можете скачивать файлы

!ВНИМАНИЕ!
Сайт не предоставляет электронные версии произведений, а занимается лишь коллекционированием и каталогизацией ссылок, присылаемых и публикуемых на форуме нашими читателями. Если вы являетесь правообладателем какого-либо представленного материала и не желаете, чтобы ссылка на него находилась в нашем каталоге, свяжитесь с нами, и мы незамедлительно удалим ее. Файлы для обмена на трекере предоставлены пользователями сайта, и администрация не несет ответственности за их содержание. Просьба не заливать файлы, защищенные авторскими правами, а также файлы нелегального содержания!