[ Сегодня идет свободное скачивание без начисления Download ]


Статистика раздачи
Нет
 
   
 
Top  
 
 
Невидимка 2/ Hollow Man II
«There's more to terror than meets the eye...»
?Год выпуска: 2006
?Страна: США
?Производство: Destination Films, Red Wagon Productions
?Жанр: Ужасы, фантастика, боевик, триллер
?Режиссёр: Клаудио Фах
?В ролях: Кристиан Слэйтер, Питер Фачинелли, Лаура Риган, Дэвид Макилрайт, Уильям МакДональд, Сара Дикинс, Джессика Хэрмон, Соня Саломяа, Терри Энн Уэлики, Джон Шоу
?Перевод: Профессиональный (многоголосый закадровый) + Оригинал
?Озвучка: Неизвестно
?Субтитры: Русские, Английские (полные отключаемые, SRT)
?Описание: Эксперименты по достижению невидимости человека увенчались успехом: военные, мечтавшие об идеальном шпионе и диверсанте, в полном восторге. Но ученым так и не удалось справиться с побочными эффектами новой технологии — у невидимок резко повышается уровень агрессии и психической нестабильности.
В один ужасный день очередной подопытный по имени Майкл Гриффин выходит из-под контроля и вырывается на свободу. Лишь два человека, знающие тайну незримого убийцы — Френк Тернер и биолог Мэгги Далтон — способны остановить его. Однако спецслужбы вовсе не желают быть уличенными в том, что выпустили на свободу невидимого монстра. И готовы на все, чтобы заставить героев замолчать навеки — как и сам Гриффин…

?Качество: HDTVRip-AVC
?Продолжительность: 01:27:35 час.
?Формат: MKV
?Видео кодек: AVC (H.264)
?Аудио кодек: AC3
?Видео: 1280x544 (2,35:1), 25,000 fps, MPEG4 AVC (х264), High@L4.1 ~4000 kbps avg, 0.230 bit/pixel
?Аудио №1: Русский: 48 kHz, AC-3, 6 ch, ~384.00 kbps avg [Профессиональный (многоголосый закадровый)]
?Аудио №2: Английский: 48 kHz, AC-3, 6 ch, ~448.00 kbps avg [Оригинал]

Mediainfo

General
Unique ID : 176535338019927967883250907400355633022 (0x84CF7828DCC3CFEB83274C378902D77E)
Complete name : D:\фильмы\Chelovek.nevidimka.2.2006.HDTVRip-AVC.mkv
Format : Matroska
Format version : Version 2
File size : 2.96 GiB
Duration : 1h 27mn
Overall bit rate : 4 832 Kbps
Encoded date : UTC 2013-01-12 21:03:47
Writing application : mkvmerge v4.6.0 ('Still Crazy After All These Years') сборка от Mar 10 2011 02:50:32
Writing library : libebml v1.2.0 + libmatroska v1.1.0
Video
ID : 1
Format : AVC
Format/Info : Advanced Video Codec
Format profile : High@L4.1
Format settings, CABAC : Yes
Format settings, ReFrames : 5 frames
Codec ID : V_MPEG4/ISO/AVC
Duration : 1h 27mn
Bit rate : 4 000 Kbps
Width : 1 280 pixels
Height : 544 pixels
Display aspect ratio : 2.35:1
Frame rate mode : Variable
Frame rate : 25.000 fps
Color space : YUV
Chroma subsampling : 4:2:0
Bit depth : 8 bits
Scan type : Progressive
Bits/(Pixel*Frame) : 0.230
Stream size : 2.39 GiB (81%)
Title : Hollow_Man_2
Writing library : x264 core 129 r2230
Encoding settings : cabac=1 / ref=5 / deblock=1:-1:-1 / analyse=0x3:0x133 / me=umh / subme=8 / psy=1 / psy_rd=1.00:0.15 / mixed_ref=0 / me_range=16 / chroma_me=1 / trellis=1 / 8x8dct=1 / cqm=0 / deadzone=21,11 / fast_pskip=1 / chroma_qp_offset=-3 / threads=6 / lookahead_threads=1 / sliced_threads=0 / nr=0 / decimate=1 / interlaced=0 / bluray_compat=0 / constrained_intra=0 / bframes=3 / b_pyramid=0 / b_adapt=2 / b_bias=0 / direct=3 / weightb=1 / open_gop=0 / weightp=2 / keyint=250 / keyint_min=25 / scenecut=40 / intra_refresh=0 / rc_lookahead=50 / rc=2pass / mbtree=1 / bitrate=4000 / ratetol=1.0 / qcomp=0.60 / qpmin=10 / qpmax=69 / qpstep=4 / cplxblur=20.0 / qblur=0.5 / vbv_maxrate=24000 / vbv_bufsize=24000 / nal_hrd=none / ip_ratio=1.40 / aq=1:1.00
Language : English
Default : Yes
Forced : No
Audio #1
ID : 2
Format : AC-3
Format/Info : Audio Coding 3
Mode extension : CM (complete main)
Codec ID : A_AC3
Duration : 1h 27mn
Bit rate mode : Constant
Bit rate : 384 Kbps
Channel(s) : 6 channels
Channel positions : Front: L C R, Side: L R, LFE
Sampling rate : 48.0 KHz
Bit depth : 16 bits
Compression mode : Lossy
Stream size : 241 MiB (8%)
Title : MVO
Language : Russian
Default : Yes
Forced : No
Audio #2
ID : 3
Format : AC-3
Format/Info : Audio Coding 3
Mode extension : CM (complete main)
Codec ID : A_AC3
Duration : 1h 27mn
Bit rate mode : Constant
Bit rate : 448 Kbps
Channel(s) : 2 channels
Channel positions : Front: L R
Sampling rate : 48.0 KHz
Bit depth : 16 bits
Compression mode : Lossy
Stream size : 281 MiB (9%)
Title : ENG
Language : English
Default : No
Forced : No
Text #1
ID : 4
Format : UTF-8
Codec ID : S_TEXT/UTF8
Codec ID/Info : UTF-8 Plain Text
Title : Full
Language : Russian
Default : Yes
Forced : No
Text #2
ID : 5
Format : UTF-8
Codec ID : S_TEXT/UTF8
Codec ID/Info : UTF-8 Plain Text
Title : Full
Language : English
Default : No
Forced : No

Скриншоты

[Стол заказов][Прием РГ][О нас "RG Dark Lords]

[Цитировать]



Показать сообщения:    

Текущее время: 20-Фев 11:32

Часовой пояс: UTC + 3


Вы не можете начинать темы
Вы не можете отвечать на сообщения
Вы не можете редактировать свои сообщения
Вы не можете удалять свои сообщения
Вы не можете голосовать в опросах
Вы не можете прикреплять файлы к сообщениям
Вы не можете скачивать файлы

!ВНИМАНИЕ!
Сайт не предоставляет электронные версии произведений, а занимается лишь коллекционированием и каталогизацией ссылок, присылаемых и публикуемых на форуме нашими читателями. Если вы являетесь правообладателем какого-либо представленного материала и не желаете, чтобы ссылка на него находилась в нашем каталоге, свяжитесь с нами, и мы незамедлительно удалим ее. Файлы для обмена на трекере предоставлены пользователями сайта, и администрация не несет ответственности за их содержание. Просьба не заливать файлы, защищенные авторскими правами, а также файлы нелегального содержания!