[ Сегодня идет свободное скачивание без начисления Download ]


Статистика раздачи
Качаю: [ 3 ]
Скачал: [ 16 ]
 
   
 
Top  
 
 
Специалист | PostgreSQL: Уровень 2. Продвинутые возможности (2015) PCRec - Автор (режиссер): Специалист
Жанр: PL/PgSQL, Программирование и СУБД
Описание:
Курс знакомит слушателей с языком PL/PgSQL и помогает им понять основные возможности этого мощного языка программирования. Также рассматриваются иные возможности расширения PostgreSQL
Курс предусматривает практические занятия. Материал данного курса незначительно зависит от выбора операционной системы. Курс читается на базе OC Linux, часть материала читается на базе ОС Windows. Рассматриваются версии PostgreSQL с 9.3 по 9.5 включительно. В необходимых случаях отмечаются отличия между версиями.
Курс предназначен для разработчиков приложений, администраторов баз данных, разработчиков отчетов, бизнес-аналитиков, научных работников.
Продолжительность: 26:56:03
Качество видео: PCRec
Видео: AVC/H.264, 960x720, ~106 Kbps
Аудио: AAC, 2 ch, 254 Kbps, VBR

Программа курса

  • Модуль 1. Обзор языка PL/PgSQL
    • Назначение и основные особенности
    • Структура функции
    • Понятие блока
    • Переменные
    • Типы данных
  • Модуль 2. Выборки в функциях
    • Использование команды SELECT
    • Переменная типа "запись"
    • Использование функций и операций
    • Понятие курсора
    • Понятие транзакции
  • Модуль 3. Основные управляющие конструкции
    • Ветвление
    • Цикл
    • Исключение
  • Модуль 4. Система правил
    • Назначение правил
    • Виды правил
    • Создание правил
  • Модуль 5. Триггеры
    • Назначение триггеров
    • Виды триггеров
    • Создание триггеров
  • Модуль 6. Пример создания объектно-ориентированной структуры
    • Понятие производной таблицы
    • Транспарентная объектно-ориентированная структура, ее преимущества и недостатки
  • Модуль 7. Стандартные составные типы данных
    • Тип XML
    • Тип JSON
    • Основы полнотекстового поиска
  • Модуль 8. Расширение PostGIS
    • Типы данных PostGIS
    • Функции PostGIS
  • Модуль 9. Управление правами доступа
    • Пользователи и роли
    • Категории прав доступа
    • Основные стратегии управления правами доступа
  • Модуль 10. Модули расширения на процедурных языках
    • Написание модуля расширения на языке Python
    • Написание модуля расширения на языке C

Mediainfo:

Общее
Полное имя : D:\#Специалист\PostgreSQL\Уровень 2. Продвинутые возможности\pgsql2_day1.mp4
Формат : MPEG-4
Профиль формата : Base Media / Version 2
Идентификатор кодека : mp42 (isom/mp42)
Размер файла : 824 Мбайт
Продолжительность : 5 ч. 18 м.
Режим общего битрейта : Переменный
Общий поток : 362 Кбит/сек
Дата кодирования : UTC 2015-12-15 06:31:52
Дата пометки : UTC 2015-12-15 06:31:52
Видео
Идентификатор : 1
Формат : AVC
Формат/Информация : Advanced Video Codec
Профиль формата : Main@L3.1
Параметр CABAC формата : Да
Параметр ReFrames формата : 3 кадра
Идентификатор кодека : avc1
Идентификатор кодека/Информация : Advanced Video Coding
Продолжительность : 5 ч. 18 м.
Битрейт : 106 Кбит/сек
Ширина : 960 пикселей
Высота : 720 пикселей
Соотношение сторон : 4:3
Режим частоты кадров : Постоянный
Частота кадров : 30,000 кадров/сек
Стандарт вещания : NTSC
Цветовое пространство : YUV
Субдискретизация насыщенности : 4:2:0
Битовая глубина : 8 бит
Тип развёртки : Прогрессивная
Бит/(Пиксели*Кадры) : 0.005
Размер потока : 240 Мбайт (29%)
Язык : English
Дата кодирования : UTC 2015-12-15 06:31:53
Дата пометки : UTC 2015-12-15 06:31:53
Цветовой диапазон : Limited
Аудио
Идентификатор : 2
Формат : AAC
Формат/Информация : Advanced Audio Codec
Профиль формата : LC
Идентификатор кодека : 40
Продолжительность : 5 ч. 18 м.
Вид битрейта : Переменный
Битрейт : 254 Кбит/сек
Максимальный битрейт : 342 Кбит/сек
Каналы : 2 канала
Расположение каналов : Front: L R
Частота : 44,1 КГц
Частота кадров : 43,066 кадра/сек (1024 spf)
Метод сжатия : С потерями
Размер потока : 578 Мбайт (70%)
Язык : English
Дата кодирования : UTC 2015-12-15 06:31:53
Дата пометки : UTC 2015-12-15 06:31:53
Скриншоты:

[Цитировать]



Показать сообщения:    

Текущее время: 10-Дек 08:05

Часовой пояс: UTC + 3


Вы не можете начинать темы
Вы не можете отвечать на сообщения
Вы не можете редактировать свои сообщения
Вы не можете удалять свои сообщения
Вы не можете голосовать в опросах
Вы не можете прикреплять файлы к сообщениям
Вы не можете скачивать файлы

!ВНИМАНИЕ!
Сайт не предоставляет электронные версии произведений, а занимается лишь коллекционированием и каталогизацией ссылок, присылаемых и публикуемых на форуме нашими читателями. Если вы являетесь правообладателем какого-либо представленного материала и не желаете, чтобы ссылка на него находилась в нашем каталоге, свяжитесь с нами, и мы незамедлительно удалим ее. Файлы для обмена на трекере предоставлены пользователями сайта, и администрация не несет ответственности за их содержание. Просьба не заливать файлы, защищенные авторскими правами, а также файлы нелегального содержания!