[ Сегодня идет свободное скачивание без начисления Download ]


Статистика раздачи
Качаю: [ 1 ]
Скачал: [ 7 ]
 
   
 
Top  
 
 
Специалист | Курс 20466D: Построение отчётов и моделей данных в SQL Server 2014 (2016) WEBRip - Автор (режиссер): Самородов Федор Анатольевич
Производство: Специалист
Жанр: программирование
Описание:
20466D Implementing Data Models and Reports with Microsoft SQL Server
В рамках курса Вы познакомитесь с различными подходами к анализу данных, накопленных в базах данных и хранилищах. А также научитесь представлять результаты анализа в виде удобных отчётов.
Курс предназначен для администраторов и разработчиков баз данных, приложений и хранилищ данных, разработчиков и администраторов аналитических систем.
По окончании курса Вы будете уметь:
Строить и использовать многомерные базы данных
Строить и использовать табличные модели
Строить отчёты, в том числе сложные
Анализировать данные
Специалисты, обладающие этими знаниями и навыками, в настоящее время крайне востребованы. Большинство выпускников наших курсов делают успешную карьеру и пользуются уважением работодателей.
Продолжительность курса - 40 ак. ч.
Продолжительность: 17:25:24
Качество видео: WEBRip
Видео: AVC/H.264, 1280*1024, ~128 Kbps
Аудио: AAC, 2 ch, 56 Kbps, VBR

Mediainfo:

Формат : MPEG-4
Профиль формата : Base Media
Идентификатор кодека : isom (isom/avc1)
Размер файла : 40,3 Мбайт
Продолжительность : 30 м.
Режим общего битрейта : Переменный
Общий поток : 187 Кбит/сек
Дата кодирования : UTC 2016-01-20 11:29:39
Дата пометки : UTC 2016-01-20 11:29:39
Видео
Идентификатор : 1
Формат : AVC
Формат/Информация : Advanced Video Codec
Профиль формата : High@L3.1
Параметр CABAC формата : Да
Параметр ReFrames формата : 8 кадров
Идентификатор кодека : avc1
Идентификатор кодека/Информация : Advanced Video Coding
Продолжительность : 30 м.
Битрейт : 128 Кбит/сек
Максимальный битрейт : 4738 Кбит/сек
Ширина : 1280 пикселей
Высота : 1024 пикселя
Соотношение сторон : 5:4
Режим частоты кадров : Постоянный
Частота кадров : 10,000 кадров/сек
Цветовое пространство : YUV
Субдискретизация насыщенности : 4:2:0
Битовая глубина : 8 бит
Тип развёртки : Прогрессивная
Бит/(Пиксели*Кадры) : 0.010
Размер потока : 27,7 Мбайт (69%)
Заголовок : 264@GPAC0.5.2-DEV-rev248-g39d5978-master
Библиотека кодирования : x264 core 146 r2538 121396c
Настройки программы : cabac=1 / ref=8 / deblock=1:-1:-1 / analyse=0x3:0x113 / me=umh / subme=7 / psy=1 / psy_rd=1.00:0.20 / mixed_ref=1 / me_range=16 / chroma_me=1 / trellis=2 / 8x8dct=1 / cqm=0 / deadzone=21,11 / fast_pskip=0 / chroma_qp_offset=-3 / threads=6 / lookahead_threads=1 / sliced_threads=0 / nr=0 / decimate=0 / interlaced=0 / bluray_compat=0 / constrained_intra=0 / bframes=3 / b_pyramid=2 / b_adapt=2 / b_bias=0 / direct=3 / weightb=1 / open_gop=0 / weightp=2 / keyint=250 / keyint_min=10 / scenecut=40 / intra_refresh=0 / rc_lookahead=50 / rc=2pass / mbtree=1 / bitrate=128 / ratetol=1.0 / qcomp=0.60 / qpmin=0 / qpmax=69 / qpstep=4 / cplxblur=20.0 / qblur=0.5 / vbv_maxrate=14000 / vbv_bufsize=14000 / nal_hrd=none / filler=0 / ip_ratio=1.40 / aq=1:1.00
Дата кодирования : UTC 2016-01-20 11:29:39
Дата пометки : UTC 2016-01-20 11:29:40
Аудио
Идентификатор : 2
Формат : AAC
Формат/Информация : Advanced Audio Codec
Профиль формата : LC
Идентификатор кодека : 40
Продолжительность : 30 м.
Вид битрейта : Переменный
Битрейт : 56,0 Кбит/сек
Максимальный битрейт : 60,5 Кбит/сек
Каналы : 2 канала
Расположение каналов : Front: L R
Частота : 44,1 КГц
Частота кадров : 43,066 кадра/сек (1024 spf)
Метод сжатия : С потерями
Размер потока : 12,1 Мбайт (30%)
Дата кодирования : UTC 2016-01-20 11:22:52
Дата пометки : UTC 2016-01-20 11:29:40

Дополнительная информация:

Модуль 1. Введение в бизнес-аналитику и моделирование данных
Элементы аналитического решения
Платформа для аналитики от Микрософта
Планирование проекта
Модуль 2. Создание многомерных баз данных
Введение в многомерный анализ
Источники данных и представления
Создание куба
Настройка защиты куба
Модуль 3. Работа с кубами и размерностями
Настройка размерностей
Создание иерархий
Сортировка и группировка атрибутов
Модуль 4. Работа с мерами и группами мер
Меры
Группы мер
Модуль 5. Введение в MDX
Основы MDX
Добавление вычислений в куб
Построение MDX-запросов
Модуль 6. Программные расширения куба
Индикаторы производительности
Действия
Перспективы
Переводы
Модуль 7. Табличные модели
Табличные модели для аналитики
Создание модели
Использование табличных моделей в корпоративной среде
Модуль 8. Введение в DAX
Основы DAX
Применение DAX в моделях
Модуль 9. Отчёты на платформе Reporting Services
Введение в службы отчётов
Использование конструктора отчётов
Группировка и агрегация в отчёте
Публикация и просмотр отчёта
Модуль 10. Сложные элементы в отчётах
Графическое отображение данных
Использование параметров
Модуль 11. Управление построением отчёта
Настройка защиты в отчёте
Настройка построения отчёта
Подписки и уведомления
Устранение неисправностей
Модуль 12. PerformancePoint
SharePoint как платформа для аналитики
Службы PerformancePoint
Источники данных
Отчёты, панели и отчётные ведомости
Модуль 13. Технологии добычи данных
Обзор технологий Data Mining
Создание решения по добыче данных
Проверка модели
Использование модели
http://www.specialist.ru/course/m20466c
Скриншоты:

[Цитировать]



Показать сообщения:    

Текущее время: 10-Дек 06:00

Часовой пояс: UTC + 3


Вы не можете начинать темы
Вы не можете отвечать на сообщения
Вы не можете редактировать свои сообщения
Вы не можете удалять свои сообщения
Вы не можете голосовать в опросах
Вы не можете прикреплять файлы к сообщениям
Вы не можете скачивать файлы

!ВНИМАНИЕ!
Сайт не предоставляет электронные версии произведений, а занимается лишь коллекционированием и каталогизацией ссылок, присылаемых и публикуемых на форуме нашими читателями. Если вы являетесь правообладателем какого-либо представленного материала и не желаете, чтобы ссылка на него находилась в нашем каталоге, свяжитесь с нами, и мы незамедлительно удалим ее. Файлы для обмена на трекере предоставлены пользователями сайта, и администрация не несет ответственности за их содержание. Просьба не заливать файлы, защищенные авторскими правами, а также файлы нелегального содержания!