[ Сегодня идет свободное скачивание без начисления Download ]


Статистика раздачи
Скачал: [ 3 ]
 
   
 
Top  
 
 
Красавица и чудовище / Beauty and the Beast (1991) BDRip [H.264] [hand made 60fps]- Производство: США, Silver Screen Partners IV, Walt Disney Feature Animation, Walt Disney Pictures
Жанр: Анимация, Мьюзикл, Фэнтези, Мелодрама
Режиссер: Гари Труздейл, Кирк Уайз
Актеры: Пэйдж О'Хара, Робби Бенсон, Ричард Уайт, Джерри Орбах, Дэвид Огден Стирс, Анжела Лансбери, Брэдли Пирс, Рекс Эверхарт, Джесси Корти, Хэл Смит
Описание:
В заколдованном замке, скрытом в темном лесу, живет ужасное Чудовище. Растопить лед в его сердце и вернуть ему человеческий облик, сняв заклятие, может только прекрасная девушка, которая полюбит его таким, какой он есть.

Возраст: 6+ (зрителям, достигшим 6 лет)
Рейтинг MPAA: G (нет возрастных ограничений)
Дата выхода DVD/Blu-ray релиза: 1 мая 2012
Релиз от: 60kadr
Продолжительность: 01:31:52
Качество видео: BDRip
Перевод: Дублированный
Видео: AVC/H.264, 1024x576, ~3 406 Kbps
Аудио: AC3, 2 ch, 192 Kbps

Mediainfo:

Format : Matroska
Format version : Version 4 / Version 2
File size : 2.31 GiB
Duration : 1h 31mn
Overall bit rate : 3 600 Kbps
Encoded date : UTC 2016-06-21 16:08:53
Writing application : mkvmerge v9.2.0 ('Photograph') 64bit
Writing library : libebml v1.3.3 + libmatroska v1.4.4
Cover : Yes
Attachments : cover.jpg
Video
ID : 1
Format : AVC
Format/Info : Advanced Video Codec
Format profile : [email protected]
Format settings, CABAC : Yes
Format settings, ReFrames : 4 frames
Codec ID : V_MPEG4/ISO/AVC
Duration : 1h 31mn
Bit rate : 3 406 Kbps
Width : 1 024 pixels
Height : 576 pixels
Display aspect ratio : 16:9
Frame rate mode : Constant
Frame rate : 59.940 (60000/1001) fps
Color space : YUV
Chroma subsampling : 4:2:0
Bit depth : 8 bits
Scan type : Progressive
Bits/(Pixel*Frame) : 0.096
Stream size : 2.19 GiB (95%)
Title : VK.COM/60KADR
Writing library : x264 core 148 r2705M 3f5ed56
Encoding settings : cabac=1 / ref=3 / deblock=1:-1:-1 / analyse=0x3:0x113 / me=hex / subme=7 / psy=1 / psy_rd=1.00:0.00 / mixed_ref=1 / me_range=16 / chroma_me=1 / trellis=1 / 8x8dct=1 / cqm=0 / deadzone=21,11 / fast_pskip=1 / chroma_qp_offset=-2 / threads=5 / lookahead_threads=1 / sliced_threads=0 / nr=0 / decimate=1 / interlaced=0 / bluray_compat=0 / constrained_intra=0 / bframes=3 / b_pyramid=2 / b_adapt=1 / b_bias=0 / direct=1 / weightb=1 / open_gop=0 / weightp=2 / keyint=250 / keyint_min=25 / scenecut=40 / intra_refresh=0 / rc_lookahead=40 / rc=crf / mbtree=1 / crf=21.0 / qcomp=0.60 / qpmin=0 / qpmax=69 / qpstep=4 / ip_ratio=1.40 / aq=1:1.00
Language : English
Default : No
Forced : No
Color range : Limited
Color primaries : BT.709
Transfer characteristics : BT.709
Matrix coefficients : BT.709
Audio
ID : 2
Format : AC-3
Format/Info : Audio Coding 3
Mode extension : CM (complete main)
Format settings, Endianness : Big
Codec ID : A_AC3
Duration : 1h 31mn
Bit rate mode : Constant
Bit rate : 192 Kbps
Channel(s) : 2 channels
Channel positions : Front: L R
Sampling rate : 44.1 KHz
Frame rate : 28.711 fps (1536 spf)
Compression mode : Lossy
Stream size : 125 MiB (5%)
Title : Дубляж
Language : Russian
Default : Yes
Forced : No
Скриншоты:

[Цитировать]



Показать сообщения:    

Текущее время: 04-Дек 05:01

Часовой пояс: UTC + 3


Вы не можете начинать темы
Вы не можете отвечать на сообщения
Вы не можете редактировать свои сообщения
Вы не можете удалять свои сообщения
Вы не можете голосовать в опросах
Вы не можете прикреплять файлы к сообщениям
Вы не можете скачивать файлы

!ВНИМАНИЕ!
Сайт не предоставляет электронные версии произведений, а занимается лишь коллекционированием и каталогизацией ссылок, присылаемых и публикуемых на форуме нашими читателями. Если вы являетесь правообладателем какого-либо представленного материала и не желаете, чтобы ссылка на него находилась в нашем каталоге, свяжитесь с нами, и мы незамедлительно удалим ее. Файлы для обмена на трекере предоставлены пользователями сайта, и администрация не несет ответственности за их содержание. Просьба не заливать файлы, защищенные авторскими правами, а также файлы нелегального содержания!