[ Сегодня идет свободное скачивание без начисления Download ]


Статистика раздачи
Нет
 
   
 
Top  
 
 
Ключ от всех дверейThe Skeleton Key«Fearing Is Believing»- Страна: США, Германия
Жанр: ужасы, триллер, детектив
Год выпуска: 2005
Продолжительность: 01:43:57
Перевод: Профессиональный (полное дублирование), Профессиональный (двухголосый, закадровый), 2 x Авторский, Оригинальный.
Субтитры: русские (forced), русские, английские.-Режиссер: Иэн Софтли / Iain Softley-В ролях: Кейт Хадсон (Caroline Ellis), Джина Роулендс (Violet Devereaux), Джон Хёрт (Ben Devereaux), Питер Сарсгаард (Luke Marshall), Джой Брайант (Jill), Максин Барнетт (Mama Cynthia), Фэнлони Р. Харрис (Hallie), Мэрион Цинсер (Bayou Woman), Денин Тайлер (Desk Nurse), Энн Далримпл (C.N.A.), Трула М. Маркус (Nurse Trula), Тоня Статен (Nurse Audrey)
Дублёры: Ольга Плетнёва (Caroline Ellis), Светлана Старикова (Violet Devereaux), Виктор Петров (Ben Devereaux), Владимир Зайцев (Luke Marshall), Юлия Артёмова (Jill), Валерий Сторожик (Creole Gas Station Owner)-Описание: 25-летняя Кэролайн Эллис устраивается работать сиделкой к пожилому инвалиду Бену Деверо, владельцу огромного особняка неподалеку от Луизианы. Его жена Вайолет вручает девушке универсальный ключ от всех дверей в доме. Однажды Кэролайн обнаруживает секретную комнату, расположенную на чердаке с массой мистических предметов. Хозяйка утверждает, что вещи принадлежат бывшим владельцам, которые занимались черной магией. Вскоре Кэролайн становится свидетельницей довольно странных и необъяснимых событий и решает, во что бы то ни стало, разгадать секрет таинственной комнаты...-
MPAA: PG-13 - Детям до 13 лет просмотр не желателен-Семпл-Качество: BDRip
Контейнер: MKV
Видео: AVC, 1280x544 (2.35:1), 4031 kbps, 23,976 fps, 0,241 bpp
Аудио №1: русский / AC3 / 5.1 / 48 kHz / 640 kbps / Дубляж
Аудио №2: русский / AC3 / 5.1 / 48 kHz / 448 kbps / DVO ( Tycoon )
Аудио №3: русский / AC3 / 5.1 / 48 kHz / 640 kbps / AVO ( Гаврилов )
Аудио №4: русский / AC3 / 5.1 / 48 kHz / 640 kbps / AVO ( Немахов )
Аудио №5: английский / AC3 / 5.1 / 48 kHz / 640 kbps
Навигация по главам: есть-

Media Info

*******************************************************************************
x264 [info]: frame I:1134 Avg QP:12.23 size:110175
x264 [info]: frame P:32388 Avg QP:14.70 size: 42080
x264 [info]: frame B:116021 Avg QP:16.17 size: 14257
*******************************************************************************
Format : Matroska
Format version : Version 2
File size : 5.11 GiB
Duration : 1h 43mn
Overall bit rate : 7 041 Kbps
Movie name : = Ключ от всех дверей / The Skeleton Key (2005) BDRip 720p by SC Kosmos =
Encoded date : UTC 2016-06-24 14:01:10
Writing application : mkvmerge v5.8.0 ('No Sleep / Pillow') built on Sep 2 2012 15:37:04
Writing library : libebml v1.2.3 + libmatroska v1.3.0
Attachment : Yes
Video
ID : 1
Format : AVC
Format/Info : Advanced Video Codec
Format profile : [email protected]
Format settings, CABAC : Yes
Format settings, ReFrames : 10 frames
Codec ID : V_MPEG4/ISO/AVC
Duration : 1h 43mn
Bit rate : 4 031 Kbps
Width : 1 280 pixels
Height : 544 pixels
Display aspect ratio : 2.35:1
Frame rate : 23.976 fps
Color space : YUV
Chroma subsampling : 4:2:0
Bit depth : 8 bits
Scan type : Progressive
Bits/(Pixel*Frame) : 0.241
Stream size : 2.83 GiB (55%)
Title : Ключ от всех дверей / The Skeleton Key (2005) BDRip 720p by SC Kosmos
Writing library : x264 core 146 r2538 121396c
Encoding settings : cabac=1 / ref=10 / deblock=1:-3:-3 / analyse=0x3:0x113 / me=umh / subme=11 / psy=1 / psy_rd=1.00:0.00 / mixed_ref=1 / me_range=32 / chroma_me=1 / trellis=2 / 8x8dct=1 / cqm=0 / deadzone=21,11 / fast_pskip=0 / chroma_qp_offset=-2 / threads=12 / lookahead_threads=2 / sliced_threads=0 / nr=0 / decimate=0 / interlaced=0 / bluray_compat=0 / constrained_intra=0 / bframes=8 / b_pyramid=2 / b_adapt=2 / b_bias=0 / direct=3 / weightb=1 / open_gop=0 / weightp=2 / keyint=240 / keyint_min=23 / scenecut=40 / intra_refresh=0 / rc_lookahead=50 / rc=2pass / mbtree=0 / bitrate=4031 / ratetol=1.0 / qcomp=0.60 / qpmin=0 / qpmax=69 / qpstep=4 / cplxblur=20.0 / qblur=0.5 / vbv_maxrate=62500 / vbv_bufsize=78125 / nal_hrd=none / filler=0 / ip_ratio=1.40 / pb_ratio=1.30 / aq=1:1.00
Language : English
Default : Yes
Forced : No
Audio #1
ID : 2
Format : AC-3
Format/Info : Audio Coding 3
Mode extension : CM (complete main)
Codec ID : A_AC3
Duration : 1h 43mn
Bit rate mode : Constant
Bit rate : 640 Kbps
Channel(s) : 6 channels
Channel positions : Front: L C R, Side: L R, LFE
Sampling rate : 48.0 KHz
Bit depth : 16 bits
Compression mode : Lossy
Stream size : 476 MiB (9%)
Title : Дубляж
Language : Russian
Default : Yes
Forced : No
Audio #2
ID : 3
Format : AC-3
Format/Info : Audio Coding 3
Mode extension : CM (complete main)
Codec ID : A_AC3
Duration : 1h 43mn
Bit rate mode : Constant
Bit rate : 448 Kbps
Channel(s) : 6 channels
Channel positions : Front: L C R, Side: L R, LFE
Sampling rate : 48.0 KHz
Bit depth : 16 bits
Compression mode : Lossy
Stream size : 333 MiB (6%)
Title : DVO ( Tycoon )
Language : Russian
Default : No
Forced : No
Audio #3
ID : 4
Format : AC-3
Format/Info : Audio Coding 3
Mode extension : CM (complete main)
Codec ID : A_AC3
Duration : 1h 43mn
Bit rate mode : Constant
Bit rate : 640 Kbps
Channel(s) : 6 channels
Channel positions : Front: L C R, Side: L R, LFE
Sampling rate : 48.0 KHz
Bit depth : 16 bits
Compression mode : Lossy
Stream size : 476 MiB (9%)
Title : AVO ( Гаврилов )
Language : Russian
Default : No
Forced : No
Audio #4
ID : 5
Format : AC-3
Format/Info : Audio Coding 3
Mode extension : CM (complete main)
Codec ID : A_AC3
Duration : 1h 43mn
Bit rate mode : Constant
Bit rate : 640 Kbps
Channel(s) : 6 channels
Channel positions : Front: L C R, Side: L R, LFE
Sampling rate : 48.0 KHz
Bit depth : 16 bits
Compression mode : Lossy
Stream size : 476 MiB (9%)
Title : AVO ( Немахов )
Language : Russian
Default : No
Forced : No
Audio #5
ID : 6
Format : AC-3
Format/Info : Audio Coding 3
Mode extension : CM (complete main)
Codec ID : A_AC3
Duration : 1h 43mn
Bit rate mode : Constant
Bit rate : 640 Kbps
Channel(s) : 6 channels
Channel positions : Front: L C R, Side: L R, LFE
Sampling rate : 48.0 KHz
Bit depth : 16 bits
Compression mode : Lossy
Stream size : 476 MiB (9%)
Language : English
Default : No
Forced : No
Text #1
ID : 7
Format : UTF-8
Codec ID : S_TEXT/UTF8
Codec ID/Info : UTF-8 Plain Text
Title : forced
Language : Russian
Default : Yes
Forced : Yes
Text #2
ID : 8
Format : UTF-8
Codec ID : S_TEXT/UTF8
Codec ID/Info : UTF-8 Plain Text
Language : Russian
Default : No
Forced : No
Text #3
ID : 9
Format : UTF-8
Codec ID : S_TEXT/UTF8
Codec ID/Info : UTF-8 Plain Text
Language : English
Default : No
Forced : No
Menu
00:00:00.000 : en:00:00:00.000
00:04:58.255 : en:00:04:58.255
00:13:41.486 : en:00:13:41.486
00:19:30.836 : en:00:19:30.836
00:24:03.482 : en:00:24:03.482
00:28:20.323 : en:00:28:20.323
00:32:04.547 : en:00:32:04.547
00:37:29.956 : en:00:37:29.956
00:41:48.338 : en:00:41:48.338
00:48:53.889 : en:00:48:53.889
00:55:17.563 : en:00:55:17.563
01:00:18.072 : en:01:00:18.072
01:02:09.766 : en:01:02:09.766
01:07:32.130 : en:01:07:32.130
01:14:23.542 : en:01:14:23.542
01:18:47.930 : en:01:18:47.930
01:22:10.926 : en:01:22:10.926
01:32:43.556 : en:01:32:43.556
01:35:29.055 : en:01:35:29.055
01:37:29.635 : en:01:37:29.635
-

Скриншоты


[Цитировать]



Показать сообщения:    

Текущее время: 06-Дек 22:58

Часовой пояс: UTC + 3


Вы не можете начинать темы
Вы не можете отвечать на сообщения
Вы не можете редактировать свои сообщения
Вы не можете удалять свои сообщения
Вы не можете голосовать в опросах
Вы не можете прикреплять файлы к сообщениям
Вы не можете скачивать файлы

!ВНИМАНИЕ!
Сайт не предоставляет электронные версии произведений, а занимается лишь коллекционированием и каталогизацией ссылок, присылаемых и публикуемых на форуме нашими читателями. Если вы являетесь правообладателем какого-либо представленного материала и не желаете, чтобы ссылка на него находилась в нашем каталоге, свяжитесь с нами, и мы незамедлительно удалим ее. Файлы для обмена на трекере предоставлены пользователями сайта, и администрация не несет ответственности за их содержание. Просьба не заливать файлы, защищенные авторскими правами, а также файлы нелегального содержания!