[ Сегодня идет свободное скачивание без начисления Download ]


Статистика раздачи
Нет
 
   
 
Top  
 
 
Принц и я 4 / The Prince and Me: The Elephant Adventure (2010) BDRip - «Take a Trip to Paradise» - Производство: США
Жанр: Мелодрама, Комедия
Режиссер: Кетрин Киран
Актеры: Джонатан Фёрт, Кэм Хескин, Крис Гир, Селина Ло, Ase Wang, Дэвид Буено, Prinya Intachai, Фрэнк ДеМартини, Джо Каммингс, Amarin Cholvibul
Описание:
Год спустя после королевской свадьбы между королем Эвардом и королевой Дании Пэйдж они получили приглашение на свадьбу принцессы Майры из Сайгуна. После прибытия Пэйдж находит Майру недовольной своим браком по рассчету со злобным Кахом и тайно влюбленой в молодого смотрителя слонов по имени Алу. После того как тайный роман между Майрой и Алу раскрыли, Алу бросили в тьрюму, а священный свадебный слон убегает в джунгли! Для спасения принцессы Майры, Пэйдж и Эдди должны найти слона, освободить Алу и убедить короля Сайгуна что высшая любовь правит всем. Прекрасное приключение, чтобы отметить свой первый юбилей!

Рейтинг MPAA: PG (рекомендуется присутствие родителей)
Релиз от: Пират82
Продолжительность: 01:33:01
Качество видео: BDRip СЭМПЛ
Перевод: Двуголосый закадровый (любительский)
Субтитры: нет
Видео: AVC/H.264, 1280x688, ~3 000 Kbps
Аудио: AC3, 2 ch, ~192.00 kbps

Mediainfo:

General
Unique ID                   : 161921753237412771550827571921409838362 (0x79D0FECD576749D2BFA2E61062708D1A)
Complete name               : E:\Раздача\The.Prince.And.Me.4.2010.720p.BDRip.mkv
Format                      : Matroska
Format version              : Version 4 / Version 2
File size                   : 2.07 GiB
Duration                    : 1h 33mn
Overall bit rate            : 3 184 Kbps
Movie name                  : The.Prince.And.Me.4.2010.720p.BluRay.x264-PFa
Encoded date                : UTC 2016-06-25 11:01:26
Writing application         : Lavf57.37.100
Writing library             : Lavf57.37.100 / Lavf57.37.100
Video
ID                          : 1
Format                      : AVC
Format/Info                 : Advanced Video Codec
Format profile              : [url=mailto:[email protected]][email protected][/url]
Format settings, CABAC      : No
Format settings, ReFrames   : 2 frames
Codec ID                    : V_MPEG4/ISO/AVC
Duration                    : 1h 33mn
Bit rate                    : 3 000 Kbps
Width                       : 1 280 pixels
Height                      : 688 pixels
Display aspect ratio        : 1.85:1
Frame rate mode             : Constant
Frame rate                  : 23.976 fps
Color space                 : YUV
Chroma subsampling          : 4:2:0
Bit depth                   : 8 bits
Scan type                   : Progressive
Bits/(Pixel*Frame)          : 0.142
Stream size                 : 1.90 GiB (92%)
Writing library             : x264 core 148 r2643
Encoding settings           : cabac=0 / ref=2 / deblock=1:3:2 / analyse=0x3:0x113 / me=hex / subme=7 / psy=1 / psy_rd=1.00:0.00 / mixed_ref=0 / me_range=16 / chroma_me=1 / trellis=2 / 8x8dct=1 / cqm=0 / deadzone=21,11 / fast_pskip=1 / chroma_qp_offset=-2 / threads=12 / lookahead_threads=2 / sliced_threads=0 / nr=0 / decimate=1 / interlaced=0 / bluray_compat=0 / constrained_intra=0 / bframes=2 / b_pyramid=0 / b_adapt=2 / b_bias=0 / direct=3 / weightb=0 / open_gop=0 / weightp=2 / keyint=239 / keyint_min=23 / scenecut=40 / intra_refresh=0 / rc_lookahead=40 / rc=2pass / mbtree=1 / bitrate=3000 / ratetol=1.0 / qcomp=0.60 / qpmin=10 / qpmax=69 / qpstep=4 / cplxblur=20.0 / qblur=0.5 / vbv_maxrate=5300 / vbv_bufsize=24000 / nal_hrd=none / filler=0 / ip_ratio=1.40 / aq=3:1.30
Language                    : English
Default                     : No
Forced                      : No
DURATION                    : 01:33:01.543000000
Audio
ID                          : 2
Format                      : AC-3
Format/Info                 : Audio Coding 3
Mode extension              : CM (complete main)
Format settings, Endianness : Big
Codec ID                    : A_AC3
Duration                    : 1h 33mn
Bit rate mode               : Constant
Bit rate                    : 192 Kbps
Channel(s)                  : 2 channels
Channel positions           : Front: L R
Sampling rate               : 48.0 KHz
Frame rate                  : 31.250 fps (1536 spf)
Compression mode            : Lossy
Stream size                 : 128 MiB (6%)
Language                    : Russian
Default                     : Yes
Forced                      : No
DURATION                    : 01:33:00.960000000
Скриншоты:

[Цитировать]



Показать сообщения:    

Текущее время: 05-Дек 17:39

Часовой пояс: UTC + 3


Вы не можете начинать темы
Вы не можете отвечать на сообщения
Вы не можете редактировать свои сообщения
Вы не можете удалять свои сообщения
Вы не можете голосовать в опросах
Вы не можете прикреплять файлы к сообщениям
Вы не можете скачивать файлы

!ВНИМАНИЕ!
Сайт не предоставляет электронные версии произведений, а занимается лишь коллекционированием и каталогизацией ссылок, присылаемых и публикуемых на форуме нашими читателями. Если вы являетесь правообладателем какого-либо представленного материала и не желаете, чтобы ссылка на него находилась в нашем каталоге, свяжитесь с нами, и мы незамедлительно удалим ее. Файлы для обмена на трекере предоставлены пользователями сайта, и администрация не несет ответственности за их содержание. Просьба не заливать файлы, защищенные авторскими правами, а также файлы нелегального содержания!