[ Сегодня идет свободное скачивание без начисления Download ]


Статистика раздачи
Нет
 
   
 
Top  
 
 
Внутренняя сила / The Power Within (1995) DVDRip - «The karate master gave him the ring and the desire... Now he must find the power!» - Производство: США
Жанр: Боевик
Режиссер: Арт Камачо
Актеры: Тед Жан Робертс, Карен Валентайн, Кит Куган, Джон О’Харли, Уильям Забка, Джералд Окамура
Описание:
От умирающего таинственного старика в восточных одеждах робкий и нерешительный подросток Стэн Драйер получает кольцо, наделенное мистической внутренней энергией. Точно такое же кольцо — в руках злодея Вонна. Только обладатель обоих колец сможет решить судьбу этого мира…

Рейтинг MPAA: PG-13 (детям до 13 лет просмотр нежелателен)
Релиз от: Sergunka172
Продолжительность: 01:33:19
Качество видео: DVDRip СЭМПЛ
Перевод: Одноголосый закадровый - Андрей Гаврилов
Язык субтитров: нет
Видео: Xvid, 720x552, ~2028 Kbps
Аудио: AC3, 2 ch, ~192.00 kbps

Mediainfo:

General
Complete name               : E:\Раздача\The Power Within  [1995, DVDRip].avi
Format                      : AVI
Format/Info                 : Audio Video Interleave
File size                   : 1.46 GiB
Duration                    : 1h 33mn
Overall bit rate            : 2 230 Kbps
Movie name                  : Vnutrennjj.sila.1995.XviD.DVDRip.AVO_SergV
Writing application         : VirtualDubMod 1.5.10.2 (build 2540/release)
Writing library             : VirtualDubMod build 2540/release
Comment                     : Рип от SergV
Video
ID                          : 0
Format                      : MPEG-4 Visual
Format profile              : Advanced Simple@L5
Format settings, BVOP       : 2
Format settings, QPel       : No
Format settings, GMC        : No warppoints
Format settings, Matrix     : Default (MPEG)
Codec ID                    : XVID
Codec ID/Hint               : XviD
Duration                    : 1h 33mn
Bit rate                    : 2 028 Kbps
Width                       : 720 pixels
Height                      : 552 pixels
Display aspect ratio        : 4:3
Frame rate                  : 25.000 fps
Color space                 : YUV
Chroma subsampling          : 4:2:0
Bit depth                   : 8 bits
Scan type                   : Progressive
Compression mode            : Lossy
Bits/(Pixel*Frame)          : 0.204
Stream size                 : 1.33 GiB (91%)
Writing library             : XviD 65
Audio
ID                          : 1
Format                      : AC-3
Format/Info                 : Audio Coding 3
Mode extension              : CM (complete main)
Format settings, Endianness : Big
Codec ID                    : 2000
Duration                    : 1h 33mn
Bit rate mode               : Constant
Bit rate                    : 192 Kbps
Channel(s)                  : 2 channels
Channel positions           : Front: L R
Sampling rate               : 48.0 KHz
Frame rate                  : 31.250 fps (1536 spf)
Compression mode            : Lossy
Stream size                 : 128 MiB (9%)
Alignment                   : Split accross interleaves
Interleave, duration        : 40 ms (1.00 video frame)
Interleave, preload duratio : 500 ms
Скриншоты:

[Цитировать]



Показать сообщения:    

Текущее время: 11-Дек 05:22

Часовой пояс: UTC + 3


Вы не можете начинать темы
Вы не можете отвечать на сообщения
Вы не можете редактировать свои сообщения
Вы не можете удалять свои сообщения
Вы не можете голосовать в опросах
Вы не можете прикреплять файлы к сообщениям
Вы не можете скачивать файлы

!ВНИМАНИЕ!
Сайт не предоставляет электронные версии произведений, а занимается лишь коллекционированием и каталогизацией ссылок, присылаемых и публикуемых на форуме нашими читателями. Если вы являетесь правообладателем какого-либо представленного материала и не желаете, чтобы ссылка на него находилась в нашем каталоге, свяжитесь с нами, и мы незамедлительно удалим ее. Файлы для обмена на трекере предоставлены пользователями сайта, и администрация не несет ответственности за их содержание. Просьба не заливать файлы, защищенные авторскими правами, а также файлы нелегального содержания!