[ Today is free to download without increasing Download ]

DL-List and Torrent activity
Внутренняя сила / The Power Within (1995) DVDRip - «The karate master gave him the ring and the desire... Now he must find the power!» - Производство: США
Жанр: Боевик
Режиссер: Арт Камачо
Актеры: Тед Жан Робертс, Карен Валентайн, Кит Куган, Джон О’Харли, Уильям Забка, Джералд Окамура
От умирающего таинственного старика в восточных одеждах робкий и нерешительный подросток Стэн Драйер получает кольцо, наделенное мистической внутренней энергией. Точно такое же кольцо — в руках злодея Вонна. Только обладатель обоих колец сможет решить судьбу этого мира…

Рейтинг MPAA: PG-13 (детям до 13 лет просмотр нежелателен)
Релиз от: Sergunka172
Продолжительность: 01:33:19
Качество видео: DVDRip СЭМПЛ
Перевод: Одноголосый закадровый - Андрей Гаврилов
Язык субтитров: нет
Видео: Xvid, 720x552, ~2028 Kbps
Аудио: AC3, 2 ch, ~192.00 kbps


Complete name               : E:\Раздача\The Power Within  [1995, DVDRip].avi
Format                      : AVI
Format/Info                 : Audio Video Interleave
File size                   : 1.46 GiB
Duration                    : 1h 33mn
Overall bit rate            : 2 230 Kbps
Movie name                  : Vnutrennjj.sila.1995.XviD.DVDRip.AVO_SergV
Writing application         : VirtualDubMod (build 2540/release)
Writing library             : VirtualDubMod build 2540/release
Comment                     : Рип от SergV
ID                          : 0
Format                      : MPEG-4 Visual
Format profile              : Advanced Simple@L5
Format settings, BVOP       : 2
Format settings, QPel       : No
Format settings, GMC        : No warppoints
Format settings, Matrix     : Default (MPEG)
Codec ID                    : XVID
Codec ID/Hint               : XviD
Duration                    : 1h 33mn
Bit rate                    : 2 028 Kbps
Width                       : 720 pixels
Height                      : 552 pixels
Display aspect ratio        : 4:3
Frame rate                  : 25.000 fps
Color space                 : YUV
Chroma subsampling          : 4:2:0
Bit depth                   : 8 bits
Scan type                   : Progressive
Compression mode            : Lossy
Bits/(Pixel*Frame)          : 0.204
Stream size                 : 1.33 GiB (91%)
Writing library             : XviD 65
ID                          : 1
Format                      : AC-3
Format/Info                 : Audio Coding 3
Mode extension              : CM (complete main)
Format settings, Endianness : Big
Codec ID                    : 2000
Duration                    : 1h 33mn
Bit rate mode               : Constant
Bit rate                    : 192 Kbps
Channel(s)                  : 2 channels
Channel positions           : Front: L R
Sampling rate               : 48.0 KHz
Frame rate                  : 31.250 fps (1536 spf)
Compression mode            : Lossy
Stream size                 : 128 MiB (9%)
Alignment                   : Split accross interleaves
Interleave, duration        : 40 ms (1.00 video frame)
Interleave, preload duratio : 500 ms


Display posts:    

Current time is: 28-Oct 18:55

All times are UTC + 3

You cannot post new topics in this forum
You cannot reply to topics in this forum
You cannot edit your posts in this forum
You cannot delete your posts in this forum
You cannot vote in polls in this forum
You cannot attach files in this forum
You cannot download files in this forum

The site does not give electronic versions of products, and is engaged only in a collecting and cataloguing of the references sent and published at a forum by our readers. If you are the legal owner of any submitted material and do not wish that the reference to it was in our catalogue, contact us and we shall immediately remove her. Files for an exchange on tracker are given by users of a site, and the administration does not bear the responsibility for their maintenance. The request to not fill in the files protected by copyrights, and also files of the illegal maintenance!