[ Сегодня идет свободное скачивание без начисления Download ]


Статистика раздачи
Скачал: [ 1 ]
 
   
 
Top  
 
 
Срок жизни / Term Life (2016) BDRip - Производство: США / Palm-Star Entertainment, PenLife Media
Жанр: Триллер, Драма, Криминал
Режиссер: Питер Биллингсли
Продюсер: Кевин Скотт Фрайкс, Мика Мэйсон, Анкур Рунгта
Актеры: Хейли Стайнфелд, Джонатан Бэнкс, Джон Фавро, Тараджи П. Хенсон, Аннабет Гиш, Билл Пэкстон, Терренс Ховард, Мануэль Рульфо, Хорди Молья, Винс Вон
Описание:
Фильм рассказывает о персонаже по имени Ник Бэрроу, который планирует кражи, а потом продаёт эти проекты тому, кто больше заплатит. Но наступает чёрный день - один из замыслов Ника с треском проваливается, и теперь его смерти жаждут все, начиная с главарей мафии и заканчивая оборотнями в погонах. Поняв, что от судьбы не убежишь, герой решает сделать напоследок что-то хорошее - он страхует жизнь на миллион долларов, чтобы после смерти обеспечить свою дочь. Не учитывает Ник только одного - страховка начнет действовать лишь через 21 день, в течение которых герою необходимо оставаться в живых. А это в его ситуации совсем не просто.

Возраст: 16+ (зрителям, достигшим 16 лет)
Рейтинг MPAA: R (лицам до 17 лет обязательно присутствие взрослого)
Дата мировой премьеры: 28 апреля 2016
Продолжительность: 01:31:50
Качество видео: BDRip (SceneRip) СЭМПЛ
Перевод: Многоголосый закадровый, любительский (Parovoz Production)
Субтитры: Русские, Английский (вшитые, отключаемые)
Реклама: Осутствует
Видео: AVC/H.264, 1920x800 (2.40:1), 23.976 fps, 8 613 Kbps (0.234 bit/pixel)
Аудио 01: AC-3, 48.0 KHz, 2 ch, 384 Kbps, CBR | Русский
Аудио 02: DTS, 48.0 KHz, 6 ch, 1510 Kbps, CBR | Английский

Mediainfo:

General
Unique ID                      : 237873054377256343755131967936415427952 (0xB2F4AF100F4690408EAD2DBDB0146D70)
Complete name                  : C:\Фильмы\Term.Life.2016.BDRip.1080p.mkv
Format                         : Matroska
Format version                 : Version 4 / Version 2
File size                      : 6.80 GiB
Duration                       : 1h 32mn
Overall bit rate               : 10.5 Mbps
Movie name                     : Term.Life.2016.BDRip.1080p.selezen
Encoded date                   : UTC 2016-06-23 22:06:44
Writing application            : mkvmerge v8.3.0 ('Over the Horizon') 64bit
Writing library                : libebml v1.3.1 + libmatroska v1.4.2
DURATION                       : 01:29:21.154000000
NUMBER_OF_FRAMES               : 1451
NUMBER_OF_BYTES                : 45613
_STATISTICS_WRITING_APP        : mkvmerge v8.3.0 ('Over the Horizon') 64bit
_STATISTICS_WRITING_DATE_UTC   : 2016-06-23 22:06:44
_STATISTICS_TAGS               : BPS DURATION NUMBER_OF_FRAMES NUMBER_OF_BYTES
Video
ID                             : 1
Format                         : AVC
Format/Info                    : Advanced Video Codec
Format profile                 : [url=mailto:High@L4.1]High@L4.1[/url]
Format settings, CABAC         : Yes
Format settings, ReFrames      : 5 frames
Codec ID                       : V_MPEG4/ISO/AVC
Duration                       : 1h 32mn
Bit rate                       : 8 613 Kbps
Width                          : 1 920 pixels
Height                         : 800 pixels
Display aspect ratio           : 2.40:1
Frame rate mode                : Constant
Frame rate                     : 23.976 fps
Color space                    : YUV
Chroma subsampling             : 4:2:0
Bit depth                      : 8 bits
Scan type                      : Progressive
Bits/(Pixel*Frame)             : 0.234
Stream size                    : 5.44 GiB (80%)
Writing library                : x264 core 148 r2692 64f4e24
Encoding settings              : cabac=1 / ref=5 / deblock=1:0:0 / analyse=0x3:0x133 / me=umh / subme=7 / psy=1 / psy_rd=1.00:0.00 / mixed_ref=1 / me_range=16 / chroma_me=1 / trellis=1 / 8x8dct=1 / cqm=0 / deadzone=21,11 / fast_pskip=0 / chroma_qp_offset=-2 / threads=25 / lookahead_threads=4 / sliced_threads=0 / nr=0 / decimate=1 / interlaced=0 / bluray_compat=0 / constrained_intra=0 / bframes=3 / b_pyramid=2 / b_adapt=1 / b_bias=0 / direct=1 / weightb=1 / open_gop=0 / weightp=2 / keyint=250 / keyint_min=23 / scenecut=40 / intra_refresh=0 / rc_lookahead=40 / rc=2pass / mbtree=1 / bitrate=8613 / ratetol=1.0 / qcomp=0.60 / qpmin=0 / qpmax=69 / qpstep=4 / cplxblur=20.0 / qblur=0.5 / ip_ratio=1.40 / aq=1:1.00
Language                       : English
Default                        : Yes
Forced                         : No
DURATION                       : 01:32:44.568000000
NUMBER_OF_FRAMES               : 133416
NUMBER_OF_BYTES                : 5987088182
_STATISTICS_WRITING_APP        : mkvmerge v8.3.0 ('Over the Horizon') 64bit
_STATISTICS_WRITING_DATE_UTC   : 2016-06-23 22:06:44
_STATISTICS_TAGS               : BPS DURATION NUMBER_OF_FRAMES NUMBER_OF_BYTES
Audio #1
ID                             : 2
Format                         : AC-3
Format/Info                    : Audio Coding 3
Mode extension                 : CM (complete main)
Format settings, Endianness    : Big
Codec ID                       : A_AC3
Duration                       : 1h 32mn
Bit rate mode                  : Constant
Bit rate                       : 384 Kbps
Channel(s)                     : 2 channels
Channel positions              : Front: L R
Sampling rate                  : 48.0 KHz
Compression mode               : Lossy
Delay relative to video        : 96ms
Stream size                    : 255 MiB (4%)
Title                          : MVO [Parovoz Production]
Language                       : Russian
Default                        : Yes
Forced                         : No
Audio #2
ID                             : 3
Format                         : DTS
Format/Info                    : Digital Theater Systems
Mode                           : 16
Format settings, Endianness    : Big
Codec ID                       : A_DTS
Duration                       : 1h 32mn
Bit rate mode                  : Constant
Bit rate                       : 1 509 Kbps
Channel(s)                     : 6 channels
Channel positions              : Front: L C R, Side: L R, LFE
Sampling rate                  : 48.0 KHz
Bit depth                      : 24 bits
Compression mode               : Lossy
Stream size                    : 1 001 MiB (14%)
Title                          : Original
Language                       : English
Default                        : No
Forced                         : No
Text #1
ID                             : 4
Format                         : UTF-8
Codec ID                       : S_TEXT/UTF8
Codec ID/Info                  : UTF-8 Plain Text
Language                       : Russian
Default                        : No
Forced                         : No
Text #2
ID                             : 5
Format                         : UTF-8
Codec ID                       : S_TEXT/UTF8
Codec ID/Info                  : UTF-8 Plain Text
Language                       : English
Default                        : No
Forced                         : No
Text #3
ID                             : 6
Format                         : UTF-8
Codec ID                       : S_TEXT/UTF8
Codec ID/Info                  : UTF-8 Plain Text
Title                          : SDH
Language                       : English
Default                        : No
Forced                         : No
Menu
00:00:00.000                   : en:00:00:00.000
00:07:30.241                   : en:00:07:30.241
00:13:04.951                   : en:00:13:04.951
00:19:25.623                   : en:00:19:25.623
00:24:38.811                   : en:00:24:38.811
00:28:01.680                   : en:00:28:01.680
00:32:49.467                   : en:00:32:49.467
00:37:35.044                   : en:00:37:35.044
00:42:13.197                   : en:00:42:13.197
00:46:56.981                   : en:00:46:56.981
00:50:42.456                   : en:00:50:42.456
00:55:20.067                   : en:00:55:20.067
00:58:37.305                   : en:00:58:37.305
01:03:44.112                   : en:01:03:44.112
01:07:57.949                   : en:01:07:57.949
01:14:37.848                   : en:01:14:37.848
01:19:45.781                   : en:01:19:45.781
01:21:29.635                   : en:01:21:29.635
01:25:30.083                   : en:01:25:30.083
01:27:32.205                   : en:01:27:32.205
Скриншоты:

[Цитировать]



Показать сообщения:    

Текущее время: 08-Дек 09:05

Часовой пояс: UTC + 3


Вы не можете начинать темы
Вы не можете отвечать на сообщения
Вы не можете редактировать свои сообщения
Вы не можете удалять свои сообщения
Вы не можете голосовать в опросах
Вы не можете прикреплять файлы к сообщениям
Вы не можете скачивать файлы

!ВНИМАНИЕ!
Сайт не предоставляет электронные версии произведений, а занимается лишь коллекционированием и каталогизацией ссылок, присылаемых и публикуемых на форуме нашими читателями. Если вы являетесь правообладателем какого-либо представленного материала и не желаете, чтобы ссылка на него находилась в нашем каталоге, свяжитесь с нами, и мы незамедлительно удалим ее. Файлы для обмена на трекере предоставлены пользователями сайта, и администрация не несет ответственности за их содержание. Просьба не заливать файлы, защищенные авторскими правами, а также файлы нелегального содержания!