[ Сегодня идет свободное скачивание без начисления Download ]


Статистика раздачи
Нет
 
   
 
Top  
 
 
Сицилиец / The Sicilian (1987) Производство: США, 20th Century FOX
Жанр: Боевик, Драма, Криминал
Режиссер: Майкл Чимино
Актеры: Кристофер Ламберт, Теренс Стэмп, Джосс Экленд, Джон Туртурро, Ричард Бауэр, Барбара Зукова, Рэй МакЭнэлли, Барри Миллер, Андреас Катсулас, Майкл Уинкотт, Ричард Вентура, Рамон Биери, Оливер Коттон
Описание:
Хроника жизни разбойника Сальваторе Джулиано, прозванного в народе «сицилийским Робин Гудом». Сальваторе грабил богатых землевладельцев и раздавал деньги бедным крестьянам. Он мечтал добиться независимости Сицилии и сделать ее американским штатом. Популярность Сальваторе на острове стремительно росла. Решив избавиться от опасного смутьяна, итальянские власти объявили ему настоящую войну, в которой объединили усилия мафия, церковь и государство...
Продолжительность: 02:26:29
Качество видео: BDRip-AVC
Перевод: Многоголосый закадровый, авторский Ю.Сербин
Язык субтитров: Русские, английские
Вид субтитров: Вшитые отключаемые
Видео: AVC, 1024x438 (2.35:1), 23.976 fps, 2 297 Kbps (0.214 bit/pixel)
Аудио #1: AC-3, 48.0 KHz, 6 ch, 448 Kbps (Russian) - Многоголосый, CP Digita
Аудио #2: AC-3, 48.0 KHz, 2 ch, 192 Kbps (Russian) - Многоголосый, Рен ТВ
Аудио #3: AC-3, 48.0 KHz, 6 ch, 448 Kbps (Russian) - Авторский Ю.Сербин
Аудио #4: AC-3, 48.0 KHz, 6 ch, 384 Kbps (English) - оригинал

Mediainfo:

Формат : Matroska
Версия формата : Version 2
Размер файла : 3,86 Гбайт
Продолжительность : 2 ч. 26 м.
Общий поток : 3770 Кбит/сек
Дата кодирования : UTC 2016-06-25 00:01:37
Программа кодирования : mkvmerge v5.3.0 ('I could have danced') built on Feb 9 2012 10:38:07
Библиотека кодирования : libebml v1.2.3 + libmatroska v1.3.0
Attachment : Yes
Видео
Идентификатор : 1
Формат : AVC
Формат/Информация : Advanced Video Codec
Профиль формата : High@L4.1
Параметр CABAC формата : Да
Параметр ReFrames формата : 12 кадров
Идентификатор кодека : V_MPEG4/ISO/AVC
Продолжительность : 2 ч. 26 м.
Битрейт : 2297 Кбит/сек
Ширина : 1024 пикселя
Высота : 438 пикселей
Соотношение сторон : 2,35:1
Режим частоты кадров : Постоянный
Частота кадров : 23,976 кадра/сек
Цветовое пространство : YUV
Субдискретизация насыщенности : 4:2:0
Битовая глубина : 8 бит
Тип развёртки : Прогрессивная
Бит/(Пиксели*Кадры) : 0.214
Размер потока : 2,27 Гбайт (59%)
Заголовок : Многоголосый закадровый, Рен ТВ
Библиотека кодирования : x264 core 146 r2538 121396c
Настройки программы : cabac=1 / ref=12 / deblock=1:-2:-2 / analyse=0x3:0x133 / me=umh / subme=11 / psy=1 / psy_rd=1.00:0.10 / mixed_ref=1 / me_range=32 / chroma_me=1 / trellis=2 / 8x8dct=1 / cqm=0 / deadzone=21,11 / fast_pskip=0 / chroma_qp_offset=-3 / threads=12 / lookahead_threads=2 / sliced_threads=0 / nr=0 / decimate=0 / interlaced=0 / bluray_compat=0 / constrained_intra=0 / bframes=9 / b_pyramid=2 / b_adapt=2 / b_bias=0 / direct=3 / weightb=1 / open_gop=0 / weightp=2 / keyint=240 / keyint_min=23 / scenecut=40 / intra_refresh=0 / rc_lookahead=40 / rc=2pass / mbtree=0 / bitrate=2297 / ratetol=1.0 / qcomp=0.60 / qpmin=0 / qpmax=69 / qpstep=4 / cplxblur=20.0 / qblur=0.5 / vbv_maxrate=50000 / vbv_bufsize=62500 / nal_hrd=none / filler=0 / ip_ratio=1.40 / pb_ratio=1.30 / aq=2:0.80
Язык : Russian
Default : Нет
Forced : Нет
Аудио #1
Идентификатор : 2
Формат : AC-3
Формат/Информация : Audio Coding 3
Расширение режима : CM (complete main)
Параметр Endianness формата : Big
Идентификатор кодека : A_AC3
Продолжительность : 2 ч. 26 м.
Вид битрейта : Постоянный
Битрейт : 448 Кбит/сек
Каналы : 6 каналов
Расположение каналов : Front: L C R, Side: L R, LFE
Частота : 48,0 КГц
Битовая глубина : 16 бит
Метод сжатия : С потерями
Размер потока : 469 Мбайт (12%)
Заголовок : Многоголосый закадровый, CP Digita
Язык : Russian
Default : Да
Forced : Нет
Аудио #2
Идентификатор : 3
Формат : AC-3
Формат/Информация : Audio Coding 3
Расширение режима : CM (complete main)
Параметр Endianness формата : Big
Идентификатор кодека : A_AC3
Продолжительность : 2 ч. 26 м.
Вид битрейта : Постоянный
Битрейт : 192 Кбит/сек
Каналы : 2 канала
Расположение каналов : Front: L R
Частота : 48,0 КГц
Битовая глубина : 16 бит
Метод сжатия : С потерями
Размер потока : 201 Мбайт (5%)
Заголовок : Многоголосый закадровый, Рен ТВ
Язык : Russian
Default : Нет
Forced : Нет
Аудио #3
Идентификатор : 6
Формат : AC-3
Формат/Информация : Audio Coding 3
Расширение режима : CM (complete main)
Параметр Endianness формата : Big
Идентификатор кодека : A_AC3
Продолжительность : 2 ч. 26 м.
Вид битрейта : Постоянный
Битрейт : 448 Кбит/сек
Каналы : 6 каналов
Расположение каналов : Front: L C R, Side: L R, LFE
Частота : 48,0 КГц
Битовая глубина : 16 бит
Метод сжатия : С потерями
Размер потока : 469 Мбайт (12%)
Заголовок : Одноголосый закадровый, Сербин
Язык : Russian
Default : Нет
Forced : Нет
Аудио #4
Идентификатор : 7
Формат : AC-3
Формат/Информация : Audio Coding 3
Расширение режима : CM (complete main)
Параметр Endianness формата : Big
Идентификатор кодека : A_AC3
Продолжительность : 2 ч. 26 м.
Вид битрейта : Постоянный
Битрейт : 384 Кбит/сек
Каналы : 6 каналов
Расположение каналов : Front: L C R, Side: L R, LFE
Частота : 48,0 КГц
Битовая глубина : 16 бит
Метод сжатия : С потерями
Размер потока : 402 Мбайт (10%)
Язык : English
Default : Нет
Forced : Нет
Текст #1
Идентификатор : 4
Формат : UTF-8
Идентификатор кодека : S_TEXT/UTF8
Идентификатор кодека/Информация : UTF-8 Plain Text
Язык : Russian
Default : Нет
Forced : Нет
Текст #2
Идентификатор : 5
Формат : UTF-8
Идентификатор кодека : S_TEXT/UTF8
Идентификатор кодека/Информация : UTF-8 Plain Text
Язык : English
Default : Нет
Forced : Нет
Меню
00:00:00.000 : en:00:00:00.000
00:11:49.875 : en:00:11:49.875
00:23:08.595 : en:00:23:08.595
00:36:56.547 : en:00:36:56.547
00:46:45.427 : en:00:46:45.427
00:58:32.509 : en:00:58:32.509
01:12:00.065 : en:01:12:00.065
01:24:09.836 : en:01:24:09.836
01:35:37.815 : en:01:35:37.815
01:47:58.722 : en:01:47:58.722
01:59:17.608 : en:01:59:17.608
02:12:06.835 : en:02:12:06.835
Скриншоты:

[Цитировать]



Показать сообщения:    

Текущее время: 10-Дек 02:15

Часовой пояс: UTC + 3


Вы не можете начинать темы
Вы не можете отвечать на сообщения
Вы не можете редактировать свои сообщения
Вы не можете удалять свои сообщения
Вы не можете голосовать в опросах
Вы не можете прикреплять файлы к сообщениям
Вы не можете скачивать файлы

!ВНИМАНИЕ!
Сайт не предоставляет электронные версии произведений, а занимается лишь коллекционированием и каталогизацией ссылок, присылаемых и публикуемых на форуме нашими читателями. Если вы являетесь правообладателем какого-либо представленного материала и не желаете, чтобы ссылка на него находилась в нашем каталоге, свяжитесь с нами, и мы незамедлительно удалим ее. Файлы для обмена на трекере предоставлены пользователями сайта, и администрация не несет ответственности за их содержание. Просьба не заливать файлы, защищенные авторскими правами, а также файлы нелегального содержания!