[ Сегодня идет свободное скачивание без начисления Download ]


Статистика раздачи
Скачал: [ 2 ]
 
   
 
Top  
 
 
Призыв / The Call Up (2016) WEB-DL 1080p-LQ - Производство: Великобритания / Red & Black Films, Stigma Films
Жанр: фантастика, боевик
Режиссер: Charles Barker
Актеры: Кристофер Оби, Паркер Сойерс, Морфидд Кларк, Макс Дикон, Дино Фаззани, Том Бенедикт Найт, Грег Колпакчи, Адриана Рэндолл, Али Кук, Мак Пиетовски
Описание:
Группа элитных онлайн-игроков получает таинственное приглашение от корпорации Zaibatsu, испытать в реальной жизни крутую видеоигру — это мечта, перед которой невозможно устоять. Прибыв на полигон, группа получает высокотехнологичную экипировку и готовится к революционной игре. Но то, что начинается как встреча с мечтой, уникальным и волнующим опытом, быстро превращается в зловещую игру. Как только группа подвергается нападению со стороны вражеских военных, они понимают, что это не игра. Сделаешь ошибку — и ты поплатишься жизнью. Теперь этим мастерам компьютерных игр придется бороться за выживание по-настоящему.

Дата мировой премьеры: 20 мая 2016
Продолжительность: 01:30:28
Качество видео: WEB-DL СЭМПЛ
Перевод: Любительский одноголосый (Хихикающий доктор)
Субтитры: Английские (вшитые, отключаемые)
Видео: AVC, 1904x1032 (16:9), 23.976 fps, 4 846 Kbps (0.103 bit/pixel)
Аудио: AC-3, 48.0 KHz, 2 ch, 192 Kbps, CBR (Russian)
Аудио: AC-3, 48.0 KHz, 6 ch, 384 Kbps, CBR (English)

Mediainfo:

Формат                                   : Matroska
Версия формата                           : Version 2
Размер файла                             : 3,50 Гбайт
Продолжительность                        : 1 ч. 30 м.
Общий поток                              : 5532 Кбит/сек
Дата кодирования                         : UTC 2016-06-26 12:56:34
Программа кодирования                    : mkvmerge v7.8.0 ('River Man') 32bit built on Apr  3 2015 12:11:22
Библиотека кодирования                   : libebml v1.3.1 + libmatroska v1.4.2
Видео
Идентификатор                            : 1
Формат                                   : AVC
Формат/Информация                        : Advanced Video Codec
Профиль формата                          : [email protected]
Параметр CABAC формата                   : Да
Параметр ReFrames формата                : 4 кадра
Идентификатор кодека                     : V_MPEG4/ISO/AVC
Продолжительность                        : 1 ч. 30 м.
Битрейт                                  : 4846 Кбит/сек
Ширина                                   : 1904 пикселя
Высота                                   : 1032 пикселя
Соотношение сторон                       : 1,85:1
Режим частоты кадров                     : Постоянный
Частота кадров                           : 23,976 кадра/сек
Цветовое пространство                    : YUV
Субдискретизация насыщенности            : 4:2:0
Битовая глубина                          : 8 бит
Тип развёртки                            : Прогрессивная
Бит/(Пиксели*Кадры)                      : 0.103
Размер потока                            : 3,06 Гбайт (88%)
Язык                                     : English
Default                                  : Да
Forced                                   : Нет
Цветовой диапазон                        : Limited
Основные цвета                           : BT.709
Характеристики трансфера                 : BT.709
Коэффициенты матрицы                     : BT.709
Аудио #1
Идентификатор                            : 2
Формат                                   : AC-3
Формат/Информация                        : Audio Coding 3
Расширение режима                        : CM (complete main)
Параметр Endianness формата              : Big
Идентификатор кодека                     : A_AC3
Продолжительность                        : 1 ч. 30 м.
Вид битрейта                             : Постоянный
Битрейт                                  : 192 Кбит/сек
Каналы                                   : 2 канала
Расположение каналов                     : Front: L R
Частота                                  : 48,0 КГц
Битовая глубина                          : 16 бит
Метод сжатия                             : С потерями
Размер потока                            : 124 Мбайт (3%)
Язык                                     : Russian
Default                                  : Да
Forced                                   : Нет
Аудио #2
Идентификатор                            : 3
Формат                                   : AC-3
Формат/Информация                        : Audio Coding 3
Расширение режима                        : CM (complete main)
Параметр Endianness формата              : Big
Идентификатор кодека                     : A_AC3
Продолжительность                        : 1 ч. 30 м.
Вид битрейта                             : Постоянный
Битрейт                                  : 384 Кбит/сек
Каналы                                   : 6 каналов
Расположение каналов                     : Front: L C R, Side: L R, LFE
Частота                                  : 48,0 КГц
Битовая глубина                          : 16 бит
Метод сжатия                             : С потерями
Размер потока                            : 249 Мбайт (7%)
Язык                                     : English
Default                                  : Нет
Forced                                   : Нет
Текст
Идентификатор                            : 4
Формат                                   : UTF-8
Идентификатор кодека                     : S_TEXT/UTF8
Идентификатор кодека/Информация          : UTF-8 Plain Text
Язык                                     : English
Default                                  : Нет
Forced                                   : Нет
Меню
00:00:00.000                             : en:Opening Sequence
00:05:52.000                             : en:Why Soxxx?
00:11:25.000                             : en:It's A Computer Screen?
00:17:27.000                             : en:Good Reflexes
00:22:57.000                             : en:Then Shoot Someone!
00:29:02.000                             : en:What Was That?
00:35:12.000                             : en:Your Best Shot
00:40:20.000                             : en:Floor 17
00:46:38.000                             : en:Where's Taylor?
00:52:29.000                             : en:He Knows The Code
00:57:45.000                             : en:What Do You See?
01:03:51.000                             : en:I Couldn't Help Emma
01:09:26.000                             : en:Atlas
01:15:40.000                             : en:I Need A MediPack!
01:20:48.000                             : en:She's Waking Up
01:27:11.000                             : en:End Credits
Скриншоты:

[Цитировать]



Показать сообщения:    

Текущее время: 04-Дек 02:54

Часовой пояс: UTC + 3


Вы не можете начинать темы
Вы не можете отвечать на сообщения
Вы не можете редактировать свои сообщения
Вы не можете удалять свои сообщения
Вы не можете голосовать в опросах
Вы не можете прикреплять файлы к сообщениям
Вы не можете скачивать файлы

!ВНИМАНИЕ!
Сайт не предоставляет электронные версии произведений, а занимается лишь коллекционированием и каталогизацией ссылок, присылаемых и публикуемых на форуме нашими читателями. Если вы являетесь правообладателем какого-либо представленного материала и не желаете, чтобы ссылка на него находилась в нашем каталоге, свяжитесь с нами, и мы незамедлительно удалим ее. Файлы для обмена на трекере предоставлены пользователями сайта, и администрация не несет ответственности за их содержание. Просьба не заливать файлы, защищенные авторскими правами, а также файлы нелегального содержания!