[ Сегодня идет свободное скачивание без начисления Download ]


Статистика раздачи
Нет
 
   
 
Top  
 
 
Жажда скорости / Redline (2007) BDRip - «Fear Nothing. Risk Everything» - Производство: США
Жанр: Боевик
Режиссер: Энди Чен
Актеры: Надя Бьорлин , Натан Филлипс , Ангус Макфэдьен , Эдди Гриффин , Тим Матисон , Джесси Джонсон , Денайс Лоутон , Нилл Скайлар , Барбара Найвен , Марк Крамптон , Хэл Озсан , Фалеоло Алайлима , Кристофер Бэкас , Кевин Леврон , Тодд Лоуи , Луис Мэндилор , Бен Александер , Грег Андерсон , Джефф Чейз , Дэвид Дэйэн Фишер , Уайклеф Джин и др.
Описание:
Золотая молодежь и крутые тачки : роллс-ройс "Фантом", ламборджини "Мурчилаго", феррари "Энзо", "Скальетти" и "F430" , два мерседеса Макларен SLR и порше "Каррера GT". Амбициозная девушка Наташа (Надя Бьорлин) бросает вызов самой агрессивной на Западном побережье группировке рейсеров , устраивающих гонки без правил на потеху богачам ...
За кадром:
Все перечисленные авто предоставил для фильма продюсер фильма Дэниэл Садек из своей личной коллекции , и не все из них дожили до премьеры . Во время съемок была вдребезги разбита личная машина Садека Porsche Carrera GT , стоимостью 450 тысяч долларов , а также редкая Ferrari Enzo стоимостью полтора миллиона — модель , произведенная в количестве всего 400 экземпляров и куча машин рангом ниже ...
Цитата:
"Хорошая машина всего лишь с комфортом довозит тебя из точки А в точку Б . А очень хорошая ? От нее сплошные неприятности" .

Возраст: 16+ (зрителям, достигшим 16 лет)
Рейтинг MPAA: PG-13 (детям до 13 лет просмотр нежелателен)
Релиз от: Пират82
Продолжительность: 01:33:19
Качество видео: BDRip СЭМПЛ
Перевод: Дублированный (Мосфильм-Мастер)
Язык субтитров: Английский
Видео: AVC/H.264, 1920x800, ~5 000 Kbps
Аудио: DTS, 6 ch, ~755 Kbps

Mediainfo:

General
Unique ID                   : 55837729753063140771130671754404055209 (0x2A01F4A09DA53000DC767A5ED81A48A9)
Complete name               : G:\Redline_2007_BDRip_1080p.mkv
Format                      : Matroska
Format version              : Version 4 / Version 2
File size                   : 3.74 GiB
Duration                    : 1h 33mn
Overall bit rate            : 5 742 Kbps
Encoded date                : UTC 2016-06-26 09:37:16
Writing application         : Lavf57.37.100
Writing library             : Lavf57.37.100 / Lavf57.37.100
Video
ID                          : 1
Format                      : AVC
Format/Info                 : Advanced Video Codec
Format profile              : [url=mailto:High@L4.1]High@L4.1[/url]
Format settings, CABAC      : No
Format settings, ReFrames   : 2 frames
Codec ID                    : V_MPEG4/ISO/AVC
Duration                    : 1h 33mn
Bit rate                    : 5 000 Kbps
Width                       : 1 920 pixels
Height                      : 800 pixels
Display aspect ratio        : 16:9
Frame rate mode             : Constant
Frame rate                  : 23.976 (24000/1001) fps
Color space                 : YUV
Chroma subsampling          : 4:2:0
Bit depth                   : 8 bits
Scan type                   : Progressive
Bits/(Pixel*Frame)          : 0.136
Stream size                 : 3.18 GiB (85%)
Writing library             : x264 core 148 r2643
Encoding settings           : cabac=0 / ref=2 / deblock=1:3:2 / analyse=0x3:0x113 / me=hex / subme=7 / psy=1 / psy_rd=1.00:0.00 / mixed_ref=0 / me_range=16 / chroma_me=1 / trellis=2 / 8x8dct=1 / cqm=0 / deadzone=21,11 / fast_pskip=1 / chroma_qp_offset=-2 / threads=12 / lookahead_threads=2 / sliced_threads=0 / nr=0 / decimate=1 / interlaced=0 / bluray_compat=0 / constrained_intra=0 / bframes=2 / b_pyramid=0 / b_adapt=2 / b_bias=0 / direct=3 / weightb=0 / open_gop=0 / weightp=2 / keyint=239 / keyint_min=23 / scenecut=40 / intra_refresh=0 / rc_lookahead=40 / rc=2pass / mbtree=1 / bitrate=5000 / ratetol=1.0 / qcomp=0.60 / qpmin=10 / qpmax=69 / qpstep=4 / cplxblur=20.0 / qblur=0.5 / vbv_maxrate=5300 / vbv_bufsize=24000 / nal_hrd=none / filler=0 / ip_ratio=1.40 / aq=3:1.30
Default                     : Yes
Forced                      : No
DURATION                    : 01:33:19.594000000
Audio
ID                          : 2
Format                      : DTS
Format/Info                 : Digital Theater Systems
Mode                        : 16
Format settings, Endianness : Big
Codec ID                    : A_DTS
Duration                    : 1h 33mn
Bit rate mode               : Constant
Bit rate                    : 755 Kbps
Channel(s)                  : 6 channels
Channel positions           : Front: L C R, Side: L R, LFE
Sampling rate               : 48.0 KHz
Frame rate                  : 93.750 fps (512 spf)
Bit depth                   : 24 bits
Compression mode            : Lossy
Delay relative to video     : 458ms
Stream size                 : 504 MiB (13%)
Language                    : Russian
Default                     : Yes
Forced                      : No
DURATION                    : 01:33:18.671000000
Text
ID                          : 3
Format                      : UTF-8
Codec ID                    : S_TEXT/UTF8
Codec ID/Info               : UTF-8 Plain Text
Default                     : Yes
Forced                      : No
DURATION                    : 01:33:12.752000000
Скриншоты:

[Цитировать]



Показать сообщения:    

Текущее время: 28-Май 07:04

Часовой пояс: UTC + 6


Вы не можете начинать темы
Вы не можете отвечать на сообщения
Вы не можете редактировать свои сообщения
Вы не можете удалять свои сообщения
Вы не можете голосовать в опросах
Вы не можете прикреплять файлы к сообщениям
Вы не можете скачивать файлы

!ВНИМАНИЕ!
Сайт не предоставляет электронные версии произведений, а занимается лишь коллекционированием и каталогизацией ссылок, присылаемых и публикуемых на форуме нашими читателями. Если вы являетесь правообладателем какого-либо представленного материала и не желаете, чтобы ссылка на него находилась в нашем каталоге, свяжитесь с нами, и мы незамедлительно удалим ее. Файлы для обмена на трекере предоставлены пользователями сайта, и администрация не несет ответственности за их содержание. Просьба не заливать файлы, защищенные авторскими правами, а также файлы нелегального содержания!