[ Сегодня идет свободное скачивание без начисления Download ]


Статистика раздачи
Нет
 
   
 
Top  
 
 
Клеопатра / Cleopatra (1999) Название: Клеопатра
Оригинальное название: Cleopatra
Год выхода: 1999
Страна: Германия, США
Студия: Babelsberg International Film Produktion, Hallmark Entertainment, RTL2
Продолжительность: 02:54:23
Жанр: драма, биография, ...
Режиссер: Фрэнк Роддэм
В ролях: Билли Зейн, Тимоти Далтон, Руперт Грейвз, Леонор Варела, Джон Боуи, Арт Малик, Надим Савалха, Оуэн Тил, Филип Куэст, Дара О`Мэлли, Жозефин Аманква, Элизабет Дермот Уолш, Ральф Браун, Джеймс Космо, Денис Куилли, Джеймс Сэксон, Амина Аннаби, Одед Фер, Стефен Дженн, Эшли Л. Кларк, Омид Джалили, Тим Барлоу, Энтони Банси, Эйс Бхатти, Марк Хилл, Мэттью Бартлетт, Ричард Армитаж, Наим Кхан Турк, Симона Харпер, Карим Дуккали, Патрик Гордон, Саймон Де Сельва, Карлтон Хэдли, ...
Перевод:
- Профессиональный (многоголосный, закадровый) MVO
- Авторский (одноголосый, закадровый) Визгунов Сергей
О фильме: Роковая царица Египта и легендарная тайна ее чар. «Мужчины должны верить: что бы ты не отдала, ему есть что еще завоевать.» 20-летняя законная царица Египта в изгнании, ее трон захвачен братом и сестрой. Клеопатра жаждет вернуть себе трон, Юлий Цезарь желает вернуть себе дань, которую ему перестали платить египтяне, и завоевать весь мир. Ночь, проведенная вместе, круто меняет жизнь обоих…
]
Кодек: x264
Качество: DVDRip-AVC
Видео: 704x536, 3700 kbps, 29,970 fps
Аудио #1: AC-3, 2 ch, 192 kbps (Rus) - MVO
Аудио #2: AC-3, 2 ch, 192 kbps (Rus) - AVO Визгунов Сергей
Аудио #3: AC-3, 2 ch, 192 kbps (Eng)
Субтитры: Английские

Дополнительная информация

За исходник спасибо - ilya_l

MediaInfo

x264 [info]: frame I:1639 Avg QP:11.53 size: 55408
x264 [info]: frame P:68865 Avg QP:13.66 size: 28932
x264 [info]: frame B:243099 Avg QP:15.57 size: 11334
x264 [info]: consecutive B-frames: 1.4% 2.0% 5.8% 32.3% 13.7% 42.0% 2.1% 0.4% 0.2% 0.1% 0.1%
Общее
Уникальный идентификатор : 248120094063486795356773013818136358157 (0xBAAA31201A65DA5AAA43BD98346C6D0D)
Полное имя : Клеопатра (Cleopatra) 1999 DVDRip.mkv
Формат : Matroska
Версия формата : Version 2
Размер файла : 5,29 Гбайт
Продолжительность : 2 ч. 54 м.
Общий поток : 4342 Кбит/сек
Дата кодирования : UTC 2016-06-22 00:34:31
Программа кодирования : mkvmerge v4.0.0 ('The Stars were mine') сборка от Jun 6 2010 16:18:42
Библиотека кодирования : libebml v1.0.0 + libmatroska v1.0.0
Видео
Идентификатор : 1
Формат : AVC
Формат/Информация : Advanced Video Codec
Профиль формата : High@L4.1
Параметр CABAC формата : Да
Параметр ReFrames формата : 12 кадров
Идентификатор кодека : V_MPEG4/ISO/AVC
Продолжительность : 2 ч. 54 м.
Битрейт : 3700 Кбит/сек
Ширина : 704 пикселя
Высота : 536 пикселей
Соотношение сторон : 4:3
Режим частоты кадров : Постоянный
Частота кадров : 29,970 (30000/1001) кадров/сек
Цветовое пространство : YUV
Субдискретизация насыщенности : 4:2:0
Битовая глубина : 8 бит
Тип развёртки : Прогрессивная
Бит/(Пиксели*Кадры) : 0.327
Размер потока : 4,40 Гбайт (83%)
Библиотека кодирования : x264 core 146 r2538 121396c
Настройки программы : cabac=1 / ref=12 / deblock=1:-3:-3 / analyse=0x3:0x133 / me=umh / subme=11 / psy=1 / psy_rd=1.00:0.00 / mixed_ref=1 / me_range=32 / chroma_me=1 / trellis=2 / 8x8dct=1 / cqm=0 / deadzone=21,11 / fast_pskip=0 / chroma_qp_offset=-2 / threads=12 / lookahead_threads=2 / sliced_threads=0 / nr=0 / decimate=0 / interlaced=0 / bluray_compat=0 / constrained_intra=0 / bframes=10 / b_pyramid=2 / b_adapt=2 / b_bias=0 / direct=3 / weightb=1 / open_gop=0 / weightp=2 / keyint=300 / keyint_min=25 / scenecut=40 / intra_refresh=0 / rc=2pass / mbtree=0 / bitrate=3700 / ratetol=1.0 / qcomp=0.60 / qpmin=0 / qpmax=69 / qpstep=4 / cplxblur=20.0 / qblur=0.5 / ip_ratio=1.40 / pb_ratio=1.30 / aq=1:0.80
Язык : English
Default : Нет
Forced : Нет
Аудио #1
Идентификатор : 2
Формат : AC-3
Формат/Информация : Audio Coding 3
Расширение режима : CM (complete main)
Параметр Endianness формата : Big
Идентификатор кодека : A_AC3
Продолжительность : 2 ч. 54 м.
Вид битрейта : Постоянный
Битрейт : 256 Кбит/сек
Каналы : 2 канала
Расположение каналов : Front: L R
Частота : 48,0 КГц
Частота кадров : 31,250 кадров/сек (1536 spf)
Метод сжатия : С потерями
Размер потока : 319 Мбайт (6%)
Заголовок : MVO
Язык : Russian
Default : Нет
Forced : Нет
Аудио #2
Идентификатор : 3
Формат : AC-3
Формат/Информация : Audio Coding 3
Расширение режима : CM (complete main)
Параметр Endianness формата : Big
Идентификатор кодека : A_AC3
Продолжительность : 2 ч. 54 м.
Вид битрейта : Постоянный
Битрейт : 192 Кбит/сек
Каналы : 2 канала
Расположение каналов : Front: L R
Частота : 48,0 КГц
Частота кадров : 31,250 кадров/сек (1536 spf)
Метод сжатия : С потерями
Размер потока : 239 Мбайт (4%)
Заголовок : AVO Визгунов Сергей
Язык : Russian
Default : Нет
Forced : Нет
Аудио #3
Идентификатор : 4
Формат : AC-3
Формат/Информация : Audio Coding 3
Профиль формата : Dolby Digital
Расширение режима : CM (complete main)
Параметр Endianness формата : Big
Идентификатор кодека : A_AC3
Продолжительность : 2 ч. 54 м.
Вид битрейта : Постоянный
Битрейт : 192 Кбит/сек
Каналы : 2 канала
Расположение каналов : Front: L R
Частота : 48,0 КГц
Частота кадров : 31,250 кадров/сек (1536 spf)
Метод сжатия : С потерями
Размер потока : 239 Мбайт (4%)
Язык : English
Default : Нет
Forced : Нет
Текст
Идентификатор : 5
Формат : UTF-8
Идентификатор кодека : S_TEXT/UTF8
Идентификатор кодека/Информация : UTF-8 Plain Text
Язык : English
Default : Нет
Forced : Нет

Скриншоты


[Цитировать]



Показать сообщения:    

Текущее время: 09-Дек 12:35

Часовой пояс: UTC + 3


Вы не можете начинать темы
Вы не можете отвечать на сообщения
Вы не можете редактировать свои сообщения
Вы не можете удалять свои сообщения
Вы не можете голосовать в опросах
Вы не можете прикреплять файлы к сообщениям
Вы не можете скачивать файлы

!ВНИМАНИЕ!
Сайт не предоставляет электронные версии произведений, а занимается лишь коллекционированием и каталогизацией ссылок, присылаемых и публикуемых на форуме нашими читателями. Если вы являетесь правообладателем какого-либо представленного материала и не желаете, чтобы ссылка на него находилась в нашем каталоге, свяжитесь с нами, и мы незамедлительно удалим ее. Файлы для обмена на трекере предоставлены пользователями сайта, и администрация не несет ответственности за их содержание. Просьба не заливать файлы, защищенные авторскими правами, а также файлы нелегального содержания!