[ Сегодня идет свободное скачивание без начисления Download ]


Статистика раздачи
Нет
 
   
 
Top  
 
 
К новому берегу (1955) Страна: СССР
Производство: К/ст им. Горького, Рижская к/ст
Жанр: драма
Год выпуска: 1955
Продолжительность: 01:48:45
Перевод: Не требуется
Cубтитры: нет
Оригинальная аудиодорожка: русский
Режиссер: Леонид Луков
В ролях:
Жанис Приекулис, Велта Лине, Лидия Фреймане, Янис Осис, Юрий Юровский, Артурс Димитерс, Байба Индриксоне, Олга Круминя, Харийс Лиепиньш, Улдис Лиелдидж, Янис Грантиньш, Луйс Шмитс, Петерис Цепурниекc, Болеславс Ружс, Юрис Леяскалнс, Элза Баруне, Виктор Коваль, Леня Беляев...
Полный список актёров
Описание:
Действие разворачивается в 1920-е годы и заканчивается в 1950-х. В центре фильма — судьба рядовой латышской семьи Лидумов. Драматично складывается она для каждого из членов этой семьи. Батрак Ян Лидум по доносу кулака Тауриня брошен за непокорность и «подстрекательские речи» в тюрьму. Его жена Ольга умирает от чахотки, а их пятилетний сын Айвор продаётся с торгов на сиротском аукционе; его «покупает» кулак Рейнис Тауринь. Сестра Яна Лидума, бывшая батрачка Ильза, всю свою энергию отдает революционной борьбе, и в своём сыне Артуре она стремится воспитать достойного помощника. Таким и застает их Ян Лидум, выйдя на свободу после 12 лет тюрьмы.- -Источник: VHS
Качество видео: VHSRip-AVC
Формат видео: MKV
Видео: 712->762x572 (4:3), 25 fps, H264 ~ 1726 kbps avg, 0.170 bit/pixel
Аудио: 48 kHz, Dolby Digital AC3 2.0, 192 kbps

MediaInfo

Общее
Полное имя : K.novomu.beregu.VHSRip-AVC_[New-team]_by_AVP_Studio.mkv
Формат : Matroska
Версия формата : Version 2
Размер файла : 1,46 Гбайт
Продолжительность : 1 ч. 48 м.
Общий поток : 1919 Кбит/сек
Дата кодирования : UTC 2016-06-26 14:27:09
Программа кодирования : mkvmerge v6.1.0 ('Old Devil') built on Mar 4 2013 09:10:42
Библиотека кодирования : libebml v1.3.0 + libmatroska v1.4.0
Видео
Идентификатор : 1
Формат : AVC
Формат/Информация : Advanced Video Codec
Профиль формата : [email protected]
Параметр CABAC формата : Да
Параметр ReFrames формата : 10 кадров
Идентификатор кодека : V_MPEG4/ISO/AVC
Продолжительность : 1 ч. 48 м.
Битрейт : 1726 Кбит/сек
Ширина : 712 пикселей
Высота : 572 пикселя
Соотношение сторон : 4:3
Режим частоты кадров : Постоянный
Частота кадров : 25,000 кадров/сек
Цветовое пространство : YUV
Субдискретизация насыщенности : 4:2:0
Битовая глубина : 8 бит
Тип развёртки : Прогрессивная
Бит/(Пиксели*Кадры) : 0.170
Размер потока : 1,28 Гбайт (88%)
Библиотека кодирования : x264 core 148 r2597 e86f3a1
Настройки программы : cabac=1 / ref=10 / deblock=1:-2:-1 / analyse=0x3:0x113 / me=umh / subme=10 / psy=1 / psy_rd=1.00:0.00 / mixed_ref=1 / me_range=32 / chroma_me=1 / trellis=2 / 8x8dct=1 / cqm=0 / deadzone=21,11 / fast_pskip=1 / chroma_qp_offset=-2 / threads=6 / lookahead_threads=1 / sliced_threads=0 / nr=0 / decimate=0 / interlaced=0 / bluray_compat=0 / constrained_intra=0 / bframes=8 / b_pyramid=2 / b_adapt=2 / b_bias=0 / direct=3 / weightb=1 / open_gop=0 / weightp=2 / keyint=250 / keyint_min=25 / scenecut=40 / intra_refresh=0 / rc=2pass / mbtree=0 / bitrate=1726 / ratetol=1.0 / qcomp=0.60 / qpmin=0 / qpmax=69 / qpstep=4 / cplxblur=20.0 / qblur=0.5 / ip_ratio=1.40 / pb_ratio=1.30 / aq=1:1.00
Default : Да
Forced : Нет
Аудио
Идентификатор : 2
Формат : AC-3
Формат/Информация : Audio Coding 3
Расширение режима : CM (complete main)
Параметр Endianness формата : Big
Идентификатор кодека : A_AC3
Продолжительность : 1 ч. 48 м.
Вид битрейта : Постоянный
Битрейт : 192 Кбит/сек
Каналы : 2 канала
Расположение каналов : Front: L R
Частота : 44,1 КГц
Частота кадров : 28,711 кадров/сек (1536 spf)
Метод сжатия : С потерями
Размер потока : 149 Мбайт (10%)
Default : Да
Forced : Нет

Скриншоты

[Цитировать]



Показать сообщения:    

Текущее время: 06-Дек 19:10

Часовой пояс: UTC + 3


Вы не можете начинать темы
Вы не можете отвечать на сообщения
Вы не можете редактировать свои сообщения
Вы не можете удалять свои сообщения
Вы не можете голосовать в опросах
Вы не можете прикреплять файлы к сообщениям
Вы не можете скачивать файлы

!ВНИМАНИЕ!
Сайт не предоставляет электронные версии произведений, а занимается лишь коллекционированием и каталогизацией ссылок, присылаемых и публикуемых на форуме нашими читателями. Если вы являетесь правообладателем какого-либо представленного материала и не желаете, чтобы ссылка на него находилась в нашем каталоге, свяжитесь с нами, и мы незамедлительно удалим ее. Файлы для обмена на трекере предоставлены пользователями сайта, и администрация не несет ответственности за их содержание. Просьба не заливать файлы, защищенные авторскими правами, а также файлы нелегального содержания!