[ Сегодня идет свободное скачивание без начисления Download ]


Статистика раздачи
Скачал: [ 4 ]
 
   
 
Top  
 
 
Разрушение / Demolition (2015) WEB-DL- Производство: США
Жанр: Драма, комедия
Режиссер: Жан-Марк Валле
Актеры: Джейк Джилленхол, Наоми Уоттс, Крис Купер, Джуда Льюис, С.Дж. Уилсон, Полли Дрэйпер, Мэлаки Клири, Дебра Монк, Хезер Линд, Уасс М. Стивенс
Описание: Когда банкир Дэвис узнал, что его жена мертва, он захотел купить шоколадный батончик в торговом автомате, но тот оказался сломан. Переживая горе, Дэвис начинает крушить дом, мебель, машину, строчить жалобы в обслуживающую торговые автоматы фирму. А в письмах он… рассказывает историю своей любви. Скоро ему отвечает Карен, менеджер компании, но сможет ли она спасти Дэвиса из эмоциональной пропасти?...

Возраст: 18+ (зрителям, достигшим 18 лет. запрещено для детей)
Рейтинг MPAA: R (лицам до 17 лет обязательно присутствие взрослого)
Премьера (мир): 10 сентября 2015, ...
Премьера (РФ): 30 июня 2016
Релиз на DVD: 22 августа 2016

Продолжительность: 01:41:23
Качество видео: WEB-DL (1080p-LQ) СЭМПЛ
Перевод: Профессиональный многоголосый
Язык субтитров: Английский
Вид субтитров: Вшитые (отключаемые)
Видео: AVC, 1916x814 (2.35:1), 23.976 fps, 4 320 Kbps (0.116 bit/pixel)
Аудио #1: AC-3, 48.0 KHz, 6 ch, 384 Kbps, CBR | Русский
Аудио #2: AC-3, 48.0 KHz, 6 ch, 384 Kbps, CBR | Английский

MediaInfo:

Общее
Уникальный идентификатор : 201328052420408334885884489372619413353 (0x97765F5ADC256EB584C4843A480A9769)
Полное имя : C:\NNM\Разрушение\Razrushenie 2015 1080p-LQ WEB-DL.mkv
Формат : Matroska
Версия формата : Version 4 / Version 2
Размер файла : 3,68 Гбайт
Продолжительность : 1 ч. 41 м.
Общий поток : 5192 Кбит/сек
Программа кодирования : mkvmerge v6.1.0 ('Old Devil') built on Mar 4 2013 09:10:42
Библиотека кодирования : libebml v1.3.0 + libmatroska v1.4.0
Видео
Идентификатор : 1
Формат : AVC
Формат/Информация : Advanced Video Codec
Профиль формата : High@L4
Параметр CABAC формата : Да
Параметр ReFrames формата : 5 кадров
Идентификатор кодека : V_MPEG4/ISO/AVC
Продолжительность : 1 ч. 41 м.
Битрейт : 4320 Кбит/сек
Ширина : 1916 пикселей
Высота : 814 пикселей
Соотношение сторон : 2,35:1
Режим частоты кадров : Постоянный
Частота кадров : 23,976 кадра/сек
Цветовое пространство : YUV
Субдискретизация насыщенности : 4:2:0
Битовая глубина : 8 бит
Тип развёртки : Прогрессивная
Бит/(Пиксели*Кадры) : 0.116
Размер потока : 3,06 Гбайт (83%)
Язык : English
Default : Да
Forced : Нет
Цветовой диапазон : Limited
Основные цвета : BT.709
Характеристики трансфера : BT.709
Коэффициенты матрицы : BT.709
Аудио #1
Идентификатор : 2
Формат : AC-3
Формат/Информация : Audio Coding 3
Расширение режима : CM (complete main)
Параметр Endianness формата : Big
Идентификатор кодека : A_AC3
Продолжительность : 1 ч. 41 м.
Вид битрейта : Постоянный
Битрейт : 384 Кбит/сек
Каналы : 6 каналов
Расположение каналов : Front: L C R, Side: L R, LFE
Частота : 48,0 КГц
Частота кадров : 31,250 кадров/сек (1536 spf)
Метод сжатия : С потерями
Размер потока : 278 Мбайт (7%)
Язык : Russian
Default : Да
Forced : Да
Аудио #2
Идентификатор : 3
Формат : AC-3
Формат/Информация : Audio Coding 3
Расширение режима : CM (complete main)
Параметр Endianness формата : Big
Идентификатор кодека : A_AC3
Продолжительность : 1 ч. 41 м.
Вид битрейта : Постоянный
Битрейт : 384 Кбит/сек
Каналы : 6 каналов
Расположение каналов : Front: L C R, Side: L R, LFE
Частота : 48,0 КГц
Частота кадров : 31,250 кадров/сек (1536 spf)
Метод сжатия : С потерями
Размер потока : 278 Мбайт (7%)
Язык : English
Default : Нет
Forced : Нет
Текст
Идентификатор : 4
Формат : UTF-8
Идентификатор кодека : S_TEXT/UTF8
Идентификатор кодека/Информация : UTF-8 Plain Text
Язык : English
Default : Да
Forced : Нет
Меню
00:00:00.000 : en:Chapter 01
00:03:09.814 : en:Chapter 02
00:07:28.280 : en:Chapter 03
00:11:11.670 : en:Chapter 04
00:15:55.995 : en:Chapter 05
00:19:23.035 : en:Chapter 06
00:23:14.766 : en:Chapter 07
00:28:21.322 : en:Chapter 08
00:32:39.038 : en:Chapter 09
00:37:16.690 : en:Chapter 10
00:42:31.379 : en:Chapter 11
00:47:09.949 : en:Chapter 12
00:51:39.802 : en:Chapter 13
00:56:23.001 : en:Chapter 14
01:00:27.286 : en:Chapter 15
01:04:41.873 : en:Chapter 16
01:09:10.182 : en:Chapter 17
01:14:08.438 : en:Chapter 18
01:18:14.517 : en:Chapter 19
01:22:22.348 : en:Chapter 20
01:26:28.469 : en:Chapter 21
01:29:15.469 : en:Chapter 22
01:33:43.612 : en:Chapter 23
01:36:41.831 : en:Chapter 24
Скриншоты:

[Цитировать]



Показать сообщения:    

Текущее время: 07-Дек 13:43

Часовой пояс: UTC + 3


Вы не можете начинать темы
Вы не можете отвечать на сообщения
Вы не можете редактировать свои сообщения
Вы не можете удалять свои сообщения
Вы не можете голосовать в опросах
Вы не можете прикреплять файлы к сообщениям
Вы не можете скачивать файлы

!ВНИМАНИЕ!
Сайт не предоставляет электронные версии произведений, а занимается лишь коллекционированием и каталогизацией ссылок, присылаемых и публикуемых на форуме нашими читателями. Если вы являетесь правообладателем какого-либо представленного материала и не желаете, чтобы ссылка на него находилась в нашем каталоге, свяжитесь с нами, и мы незамедлительно удалим ее. Файлы для обмена на трекере предоставлены пользователями сайта, и администрация не несет ответственности за их содержание. Просьба не заливать файлы, защищенные авторскими правами, а также файлы нелегального содержания!