[ Сегодня идет свободное скачивание без начисления Download ]


Статистика раздачи
Скачал: [ 1 ]
 
   
 
Top  
 
 
Идеальные незнакомцы / Perfetti sconosciuti (2016) HDRip - Производство: Италия
Жанр: Драма, Комедия
Режиссер: Паоло Дженовезе
Продюсер: Марко Беларди, Марко Джианнони
Актеры: Джузеппе Баттистон, Анна Фольетта, Марко Джаллини, Эдоардо Лео, Валерио Мастандреа, Альба Рорвахер, Касия Смутняк
Описание:
Семеро старых друзей собираются вместе на ужин. Когда они решают начать игру, заключающуюся в том, что им придется читать все поступающие смс вслух, а на звонки отвечать по громкой связи, они и представить себе не могут, к чему приведет такая откровенность.

Дата мировой премьеры: 11 февраля 2016
Продолжительность: 01:36:03
Качество видео: HDRip СЭМПЛ
Перевод: Одноголосый закадровый, любительский (LetEatBee)
Вид субтитров: Отсутствуют
Видео: Xvid, 720x304, ~1391 kbps
Аудио: AC3, 6 ch, 448 kbps, CBR

Mediainfo:

Общее
Полное имя                               : D:\KINO 3\1MAYO\Idealnuie.Neznakomci.avi
Формат                                   : AVI
Формат/Информация                        : Audio Video Interleave
Размер файла                             : 1,24 Гбайт
Продолжительность                        : 1 ч. 36 м.
Общий поток                              : 1849 Кбит/сек
Программа кодирования                    : VirtualDubMod 1.5.10.3 (build 2550/release)
Библиотека кодирования                   : VirtualDubMod build 2550/release
Видео
Идентификатор                            : 0
Формат                                   : MPEG-4 Visual
Профиль формата                          : Advanced Simple@L5
Параметр BVOP формата                    : Нет
Параметр QPel формата                    : Нет
Параметр GMC формата                     : Без точки перехода
Параметр матрицы формата                 : Выборочная
Идентификатор кодека                     : XVID
Идентификатор кодека/Подсказка           : XviD
Продолжительность                        : 1 ч. 36 м.
Битрейт                                  : 1391 Кбит/сек
Ширина                                   : 720 пикселей
Высота                                   : 304 пикселя
Соотношение сторон                       : 2,35:1
Частота кадров                           : 23,976 (23976/1000) кадра/сек
Цветовое пространство                    : YUV
Субдискретизация насыщенности            : 4:2:0
Битовая глубина                          : 8 бит
Тип развёртки                            : Прогрессивная
Метод сжатия                             : С потерями
Бит/(Пиксели*Кадры)                      : 0.265
Размер потока                            : 956 Мбайт (75%)
Библиотека кодирования                   : XviD 64
Аудио
Идентификатор                            : 1
Формат                                   : AC-3
Формат/Информация                        : Audio Coding 3
Расширение режима                        : CM (complete main)
Параметр Endianness формата              : Big
Идентификатор кодека                     : 2000
Продолжительность                        : 1 ч. 36 м.
Вид битрейта                             : Постоянный
Битрейт                                  : 448 Кбит/сек
Каналы                                   : 6 каналов
Расположение каналов                     : Front: L C R, Side: L R, LFE
Частота                                  : 48,0 КГц
Частота кадров                           : 31,250 кадров/сек (1536 spf)
Метод сжатия                             : С потерями
Размер потока                            : 308 Мбайт (24%)
Выравнивание                             : Разделение по промежуткам
Продолжительность промежутка             : 42  мс. (1,00 видеокадр)
Время предзагрузки промежутка            : 500  мс.
Скриншоты:

[Цитировать]



Показать сообщения:    

Текущее время: 08-Дек 03:15

Часовой пояс: UTC + 3


Вы не можете начинать темы
Вы не можете отвечать на сообщения
Вы не можете редактировать свои сообщения
Вы не можете удалять свои сообщения
Вы не можете голосовать в опросах
Вы не можете прикреплять файлы к сообщениям
Вы не можете скачивать файлы

!ВНИМАНИЕ!
Сайт не предоставляет электронные версии произведений, а занимается лишь коллекционированием и каталогизацией ссылок, присылаемых и публикуемых на форуме нашими читателями. Если вы являетесь правообладателем какого-либо представленного материала и не желаете, чтобы ссылка на него находилась в нашем каталоге, свяжитесь с нами, и мы незамедлительно удалим ее. Файлы для обмена на трекере предоставлены пользователями сайта, и администрация не несет ответственности за их содержание. Просьба не заливать файлы, защищенные авторскими правами, а также файлы нелегального содержания!