[ Сегодня идет свободное скачивание без начисления Download ]


Статистика раздачи
Нет
 
   
 
Top  
 
 
Чумовая пятница / Freaky Friday (2003) WEB-DLRip [H.264] - Производство: США, Walt Disney Pictures
Жанр: Комедия, Семейный
Режиссер: Марк Уотерс
Актеры: Джейми Ли Кёртис, Линдси Лохан, Марк Хэрмон, Харольд Гулд, Чад Майкл Мюррэй, Стивен Тоболовски, Кристина Видаль, Райан Малгарини
Описание:
У доктора Тэсс Колман и ее пятнадцатилетней дочери Энн совершенно разные взгляды на жизнь. У них расходятся вкусы абсолютно во всем — моде, музыке, им нравятся совершенно разные типы мужчин. И однажды в четверг их разногласия достигают апогея. Тэсс не одобряет музыкальные пристрастия дочери, а Энн терпеть не может друга своей матери и активно возражает против их свадьбы. Но внезапно все меняется самым чудесным образом. В пятницу два непримиримых врага проснувшись, внезапно обнаруживают, что они поменялись телами. Благодаря этому, Тэсс и Энн, начинают смотреть друг на друга в буквальном смысле новыми глазами и проникаются взаимным уважением. Но этого мало: судьба-злодейка подкидывает этой семейке новое испытание. В субботу — свадьба Тэсс, и это добавляет пикантности во взаимоотношения двух героинь…

Возраст: 12+ (зрителям, достигшим 12 лет)
Рейтинг MPAA: PG (рекомендуется присутствие родителей)
Дата выхода DVD/Blu-ray релиза: 28 сентября 2010, «Юниверсал Пикчерс Рус»
Релиз от: K.E.N
Продолжительность: 01:37:03
Качество видео: WEB-DLRip (AVC)
Перевод: Дублированный, двухголосый закадровый, любительский одноголосый
Субтитры: Русские, английские
Видео: AVC, 1024x576 (16:9), 25.000 fps, 2 895 Kbps (0.196 bit/pixel)
Аудио #1: AC-3, 48.0 KHz, 2 ch, 192 Kbps (Russian) - дубляж
Аудио #2: AC-3, 48.0 KHz, 6 ch, 384 Kbps (Russian) - двухголосый
Аудио #3: AC-3, 48.0 KHz, 6 ch, 384 Kbps (Russian) - одноголосый

Mediainfo:

Формат                                   : Matroska
Версия формата                           : Version 2
Размер файла                             : 2,51 Гбайт
Продолжительность                        : 1 ч. 33 м.
Общий поток                              : 3855 Кбит/сек
Дата кодирования                         : UTC 2016-06-26 18:26:15
Программа кодирования                    : mkvmerge v5.3.0 ('I could have danced') built on Feb  9 2012 10:38:07
Библиотека кодирования                   : libebml v1.2.3 + libmatroska v1.3.0
Attachment                               : Yes
Видео
Идентификатор                            : 1
Формат                                   : AVC
Формат/Информация                        : Advanced Video Codec
Профиль формата                          : [url=mailto:[email protected]][email protected][/url]
Параметр CABAC формата                   : Да
Параметр ReFrames формата                : 10 кадров
Идентификатор кодека                     : V_MPEG4/ISO/AVC
Продолжительность                        : 1 ч. 33 м.
Битрейт                                  : 2895 Кбит/сек
Ширина                                   : 1024 пикселя
Высота                                   : 576 пикселей
Соотношение сторон                       : 16:9
Режим частоты кадров                     : Постоянный
Частота кадров                           : 25,000 кадров/сек
Цветовое пространство                    : YUV
Субдискретизация насыщенности            : 4:2:0
Битовая глубина                          : 8 бит
Тип развёртки                            : Прогрессивная
Бит/(Пиксели*Кадры)                      : 0.196
Размер потока                            : 1,83 Гбайт (73%)
Библиотека кодирования                   : x264 core 146 r2538 121396c
Настройки программы                      : cabac=1 / ref=10 / deblock=1:-2:-2 / analyse=0x3:0x133 / me=umh / subme=10 / psy=1 / psy_rd=1.00:0.10 / mixed_ref=1 / me_range=32 / chroma_me=1 / trellis=2 / 8x8dct=1 / cqm=0 / deadzone=21,11 / fast_pskip=0 / chroma_qp_offset=-3 / threads=12 / lookahead_threads=2 / sliced_threads=0 / nr=0 / decimate=0 / interlaced=0 / bluray_compat=0 / constrained_intra=0 / bframes=6 / b_pyramid=2 / b_adapt=2 / b_bias=0 / direct=3 / weightb=1 / open_gop=0 / weightp=2 / keyint=250 / keyint_min=25 / scenecut=40 / intra_refresh=0 / rc_lookahead=40 / rc=2pass / mbtree=0 / bitrate=2895 / ratetol=1.0 / qcomp=0.60 / qpmin=0 / qpmax=69 / qpstep=4 / cplxblur=20.0 / qblur=0.5 / vbv_maxrate=50000 / vbv_bufsize=62500 / nal_hrd=none / filler=0 / ip_ratio=1.40 / pb_ratio=1.30 / aq=2:0.80
Default                                  : Да
Forced                                   : Нет
Аудио #1
Идентификатор                            : 2
Формат                                   : AC-3
Формат/Информация                        : Audio Coding 3
Профиль формата                          : Dolby Digital
Расширение режима                        : CM (complete main)
Параметр Endianness формата              : Big
Идентификатор кодека                     : A_AC3
Продолжительность                        : 1 ч. 33 м.
Вид битрейта                             : Постоянный
Битрейт                                  : 192 Кбит/сек
Каналы                                   : 2 канала
Расположение каналов                     : Front: L R
Частота                                  : 48,0 КГц
Битовая глубина                          : 16 бит
Метод сжатия                             : С потерями
Размер потока                            : 128 Мбайт (5%)
Заголовок                                : DD 2.0 @ 192 kbps – Дубляж (R5)
Язык                                     : Russian
Default                                  : Да
Forced                                   : Нет
Аудио #2
Идентификатор                            : 3
Формат                                   : AC-3
Формат/Информация                        : Audio Coding 3
Расширение режима                        : CM (complete main)
Параметр Endianness формата              : Big
Идентификатор кодека                     : A_AC3
Продолжительность                        : 1 ч. 33 м.
Вид битрейта                             : Постоянный
Битрейт                                  : 384 Кбит/сек
Каналы                                   : 6 каналов
Расположение каналов                     : Front: L C R, Side: L R, LFE
Частота                                  : 48,0 КГц
Битовая глубина                          : 16 бит
Метод сжатия                             : С потерями
Размер потока                            : 256 Мбайт (10%)
Заголовок                                : DD 5.1 @ 384 kbps – Двухголосый закадровый
Язык                                     : Russian
Default                                  : Нет
Forced                                   : Нет
Аудио #3
Идентификатор                            : 4
Формат                                   : AC-3
Формат/Информация                        : Audio Coding 3
Расширение режима                        : CM (complete main)
Параметр Endianness формата              : Big
Идентификатор кодека                     : A_AC3
Продолжительность                        : 1 ч. 33 м.
Вид битрейта                             : Постоянный
Битрейт                                  : 384 Кбит/сек
Каналы                                   : 6 каналов
Расположение каналов                     : Front: L C R, Side: L R, LFE
Частота                                  : 48,0 КГц
Битовая глубина                          : 16 бит
Метод сжатия                             : С потерями
Размер потока                            : 256 Мбайт (10%)
Заголовок                                : DD 5.1 @ 384 kbps – Одноголосый закадровый
Язык                                     : Russian
Default                                  : Нет
Forced                                   : Нет
Текст #1
Идентификатор                            : 5
Формат                                   : UTF-8
Идентификатор кодека                     : S_TEXT/UTF8
Идентификатор кодека/Информация          : UTF-8 Plain Text
Заголовок                                : R5
Язык                                     : Russian
Default                                  : Нет
Forced                                   : Нет
Текст #2
Идентификатор                            : 6
Формат                                   : UTF-8
Идентификатор кодека                     : S_TEXT/UTF8
Идентификатор кодека/Информация          : UTF-8 Plain Text
Язык                                     : English
Default                                  : Нет
Forced                                   : Нет
Меню
00:00:00.000                             : en:Chapter 1
00:09:47.400                             : en:Chapter 2
00:16:46.760                             : en:Chapter 3
00:23:04.960                             : en:Chapter 4
00:31:36.440                             : en:Chapter 5
00:40:07.080                             : en:Chapter 6
00:52:48.160                             : en:Chapter 7
01:01:15.200                             : en:Chapter 8
01:08:22.720                             : en:Chapter 9
01:13:27.640                             : en:Chapter 10
01:18:53.120                             : en:Chapter 11
01:26:09.000                             : en:Chapter 12
Скриншоты:

[Цитировать]



Показать сообщения:    

Текущее время: 06-Дек 20:55

Часовой пояс: UTC + 3


Вы не можете начинать темы
Вы не можете отвечать на сообщения
Вы не можете редактировать свои сообщения
Вы не можете удалять свои сообщения
Вы не можете голосовать в опросах
Вы не можете прикреплять файлы к сообщениям
Вы не можете скачивать файлы

!ВНИМАНИЕ!
Сайт не предоставляет электронные версии произведений, а занимается лишь коллекционированием и каталогизацией ссылок, присылаемых и публикуемых на форуме нашими читателями. Если вы являетесь правообладателем какого-либо представленного материала и не желаете, чтобы ссылка на него находилась в нашем каталоге, свяжитесь с нами, и мы незамедлительно удалим ее. Файлы для обмена на трекере предоставлены пользователями сайта, и администрация не несет ответственности за их содержание. Просьба не заливать файлы, защищенные авторскими правами, а также файлы нелегального содержания!