[ Сегодня идет свободное скачивание без начисления Download ]


Статистика раздачи
Нет
 
   
 
Top  
 
 
Четыре свадьбы и одни похороны / Four Weddings and a Funeral (1993) HDTV 1080i- Производство: Великобритания, PolyGram Filmed Entertainment, Channel Four Films, Working Title Films
Жанр: Драма, Мелодрама, Комедия
Режиссер: Майк Ньюэлл
Актеры: Хью Грант, Энди МакДауэлл, Кристин Скотт-Томас, Саймон Кэллоу, Джеймс Флит, Тимоти Уокер, Дэвид Бауэр, Сэра Кроу, Шарлотт Коулман, Джон Ханна
Описание:
Чарльз, 32-летний англичанин-интеллектуал, очень напрягается каждый раз, когда на горизонте вырисовывается перспектива женитьбы. Однажды, на очередной свадебной церемонии своего друга, он знакомится с очаровательной американкой Кэрри, и тут его оборонительная стратегия дает роковую трещину.
Оскар, 1995 год
Номинации (2):
Лучший фильм
Лучший сценарий

Возраст: 16+ (зрителям, достигшим 16 лет)
Рейтинг MPAA: R (лицам до 17 лет обязательно присутствие взрослого)
Продолжительность: 01:50:49
Качество видео: HDTV [1080i]СЭМПЛ
Перевод: Многоголосый закадровый (Первый канал)
Видео: AVC/H.264, 1920x1080, ~6249 Kbps
Аудио #1: MP2, 48 kHz, 2 ch, 224 kbps
Аудио #2: АС-3, 48 kHz, 6 ch, 384 kbps

Mediainfo:

Общее
Идентификатор                            : 16 (0x10)
Полное имя                               : Four Weddings and a Funeral_HD.ts
Формат                                   : MPEG-TS
Размер файла                             : 5,59 Гбайт
Продолжительность                        : 1 ч. 50 м.
Режим общего битрейта                    : Переменный
Общий поток                              : 7220 Кбит/сек
Видео
Идентификатор                            : 1902 (0x76E)
Идентификатор меню                       : 92 (0x5C)
Формат                                   : AVC
Формат/Информация                        : Advanced Video Codec
Профиль формата                          : [url=mailto:High@L4.0]High@L4.0[/url]
Параметр CABAC формата                   : Да
Параметр ReFrames формата                : 3 кадра
Параметр GOP формата                     : M=4, N=32
Идентификатор кодека                     : 27
Продолжительность                        : 1 ч. 50 м.
Битрейт                                  : 6249 Кбит/сек
Ширина                                   : 1920 пикселей
Высота                                   : 1080 пикселей
Соотношение сторон                       : 16:9
Частота кадров                           : 25,000 кадров/сек
Стандарт вещания                         : PAL
Цветовое пространство                    : YUV
Субдискретизация насыщенности            : 4:2:0
Битовая глубина                          : 8 бит
Тип развёртки                            : Чересстрочная
Порядок развёртки                        : Верхнее поле первое
Бит/(Пиксели*Кадры)                      : 0.121
Размер потока                            : 4,84 Гбайт (87%)
Основные цвета                           : BT.709
Характеристики трансфера                 : BT.709
Коэффициенты матрицы                     : BT.709
Аудио #1
Идентификатор                            : 2902 (0xB56)
Идентификатор меню                       : 92 (0x5C)
Формат                                   : MPEG Audio
Версия формата                           : Version 1
Профиль формата                          : Layer 2
Идентификатор кодека                     : 4
Продолжительность                        : 1 ч. 50 м.
Вид битрейта                             : Постоянный
Битрейт                                  : 224 Кбит/сек
Каналы                                   : 2 канала
Частота                                  : 48,0 КГц
Метод сжатия                             : С потерями
Задержка видео                           : 40 мс.
Размер потока                            : 178 Мбайт (3%)
Язык                                     : std
Язык, дополнительно                      : Clean effects
Аудио #2
Идентификатор                            : 3902 (0xF3E)
Идентификатор меню                       : 92 (0x5C)
Формат                                   : AC-3
Формат/Информация                        : Audio Coding 3
Расширение режима                        : CM (complete main)
Параметр Endianness формата              : Big
Идентификатор кодека                     : 6
Продолжительность                        : 1 ч. 50 м.
Вид битрейта                             : Постоянный
Битрейт                                  : 384 Кбит/сек
Каналы                                   : 6 каналов
Расположение каналов                     : Front: L C R, Side: L R, LFE
Частота                                  : 48,0 КГц
Битовая глубина                          : 16 бит
Метод сжатия                             : С потерями
Задержка видео                           : 144 мс.
Размер потока                            : 304 Мбайт (5%)
Язык                                     : std
Язык, дополнительно                      : Clean effects
Текст
Идентификатор                            : 33 (0x21)-100
Идентификатор меню                       : 92 (0x5C)
Формат                                   : Teletext
Меню
Идентификатор                            : 902 (0x386)
Идентификатор меню                       : 92 (0x5C)
Продолжительность                        : 1 ч. 50 м.
Список                                   : 1902 (0x76E) (AVC) / 2902 (0xB56) (MPEG Audio, std) / 3902 (0xF3E) (AC-3, std) / 33 (0x21) ()
Язык                                     :  / std / std

Знаете ли вы, что...

Энди МакДауэлл была утверждена на роль Кэрри всего за две недели до начала съёмок.
Бюджет фильма был настолько мал, что шотландскую свадьбу снимали не в Шотландии, а люди, задействованы в качестве массовки, были одеты в свои собственные костюмы.
Кристин Скотт Томас и Хью Грант также сыграли вместе в «Горькой Луне» (1992). В обоих фильмах героиню Томас зовут Фиона.
В одной из сцен Чарльз говорит Кэрри (Энди МакДауэлл): «На секунду мне показалось, что я попал в «Роковое влечение» (1987). Гленн Клоуз, сыгравшая в «Роковом влечении», переозвучивала героиню МакДауэлл в «Грейкстоук: Легенда о Тарзане, повелителе обезьян» (1984).
Во время съёмок Хью Грант считал, что фильм с треском провалится в прокате.
Сцену, в которой Кэрри поднимает вуаль платья, которое она примеряет, и видит Чарльза, была вырезана после тест-просмотров.
На начало 1999 года фильм «Четыре свадьбы и одни похороны» был самым кассовым в истории британского кино: мировые сборы составили $260 млн. долларов.
Большая часть роли Джереми Кемпа была вырезана.
Кристин Скотт Томас озвучивала свою героиню для французской дублированной версии фильма.
Из удаленной сцены мы узнаем, что Чарльз, Мэтью и Фиона учились в одном университете. Гарет был учителем в том же университете.
Ричард Родни Беннетт, написавший музыку для фильма, заснул во время своего первого просмотра картины.
Роль Кэрри могла достаться Джини Трипплхорн.
Мариса Томей отказалась от главной женской роли в фильме.

Рецензия, отзыв:

Мелодраматическая комедия
Эта английская романтическая комедия (хотя в какой-то момент её можно посчитать даже трагикомедией) пользовалась огромным успехом во всём мире, превзойдя более чем в 40 раз (!) собственный бюджет. И стала, в частности, самой доходной в прокате США среди британских лент 90-х годов. Заокеанская публика тоже оценила забавную и трогательную картину 51-летнего Майка Ньюэлла, который ранее поставил трагическую любовную историю «Танец с незнакомцем» и ностальгический фильм «Колдовской апрель» о четырёх англичанках, решивших провести отпуск в Италии.
Однако в лёгкой, подчас фарсовой манере ленты «Четыре свадьбы и похороны» (точнее был бы перевод «Четыре свадьбы и одни похороны») можно почувствовать не только отголоски многих работ (особенно «Свадьбы») Роберта Олтмена, как бы европейца в родной Америке, но и целого ряда французских водевилей и комических пьес. Не случайно, что именно во Франции картина Ньюэлла стала лидером сезона и получила «Сезар», умудрившись обыграть в творческом споре не только олтменовский «Короткий монтаж», но даже… «Криминальное чтиво» Квентина Тарантино и «Список Шиндлера» Стивена Спилберга.
История долгого и капризного приноравливания друг к другу англичанина Чарльза и американки Кэрри, которые довольно беспечно относятся к любви и браку, но регулярно посещают свадебные церемонии своих родственников, друзей и знакомых, рассказана весело, непринуждённо, со смешными деталями и лукавыми наблюдениями. Но грустные мгновения в жизни героев, всё-таки ждущих идеальной любви, и, прежде всего, печальные похороны одного из самых жизнерадостных персонажей (внезапно умирает Гарет, которому его оставшийся в одиночестве любовник посвящает прочувствованную речь, цитируя стихотворение «Похоронный блюз» У. Х. Одена), оказывают решающее воздействие на умонастроения свадебных гостей. Так что в финале уже чуть ли не все, кто пребывал до сих пор вне уз брака, поспешно женятся, хотя через несколько месяцев они вполне могут развестись, позабыв о своей венчальной клятве насчёт того, что «пока смерть нас не разлучит». Тем не менее, плохая свадьба всегда лучше хороших похорон.
Скриншоты:

[Цитировать]



Показать сообщения:    

Текущее время: 09-Дек 18:32

Часовой пояс: UTC + 3


Вы не можете начинать темы
Вы не можете отвечать на сообщения
Вы не можете редактировать свои сообщения
Вы не можете удалять свои сообщения
Вы не можете голосовать в опросах
Вы не можете прикреплять файлы к сообщениям
Вы не можете скачивать файлы

!ВНИМАНИЕ!
Сайт не предоставляет электронные версии произведений, а занимается лишь коллекционированием и каталогизацией ссылок, присылаемых и публикуемых на форуме нашими читателями. Если вы являетесь правообладателем какого-либо представленного материала и не желаете, чтобы ссылка на него находилась в нашем каталоге, свяжитесь с нами, и мы незамедлительно удалим ее. Файлы для обмена на трекере предоставлены пользователями сайта, и администрация не несет ответственности за их содержание. Просьба не заливать файлы, защищенные авторскими правами, а также файлы нелегального содержания!