[ Сегодня идет свободное скачивание без начисления Download ]


Статистика раздачи
Скачал: [ 2 ]
 
   
 
Top  
 
 
Сентябрь в Ширазе / Septembers of Shiraz (2015) WEB-DL 720p-LQ - Производство: США, AMBI Group, Crosscurrent Productions
Жанр: Триллер
Режиссер: Уэйн Блэр
Актеры: Сальма Хайек, Эдриан Броуди, Шоре Агдашлу, Габриэлла Райт, Алон Абутбул, Энтони Азизи, Башар Рахаль, Нассер Мемарзиа, Бен Юсеф, Армин Амири
Описание:
Действие картины разворачивается во время иранской революции 1979 года. Главная героиня — богатая еврейская девушка, отец которой торговал ювелирными изделиями с зарубежными странами. Из-за этого власти страны обвинили его в шпионаже и заключили в тюрьму. Семья решила просить политического убежища в Америке.

Рейтинг MPAA: PG-13 (детям до 13 лет просмотр нежелателен)
Дата мировой премьеры: 15 сентября 2015

Продолжительность: 01:49:14
Качество видео: WEB-DL СЭМПЛ
Перевод: Профессиональный многоголосый (СПД)
Субтитры: Отсутствуют
Реклама: Присутствуют вставки голосовой и текстовой рекламы
Видео: AVC, 1280x690 (1.855), 23.976 fps, 3 547 Kbps (0.167 bit/pixel)
Аудио: AC-3, 48.0 KHz, 2 ch, 192 Kbps, CBR

Mediainfo:

Формат                                   : Matroska
Версия формата                           : Version 4 / Version 2
Размер файла                             : 2,91 Гбайт
Продолжительность                        : 1 ч. 49 м.
Режим общего битрейта                    : Постоянный
Общий поток                              : 3814 Кбит/сек
Дата кодирования                         : UTC 2016-06-26 10:42:05
Программа кодирования                    : mkvmerge v8.9.0 ('Father Daughter') 64bit
Библиотека кодирования                   : libebml v1.3.3 + libmatroska v1.4.4
DURATION                                 : 01:49:14.432000000
NUMBER_OF_FRAMES                         : 204826
NUMBER_OF_BYTES                          : 157306368
_STATISTICS_WRITING_APP                  : mkvmerge v8.9.0 ('Father Daughter') 64bit
_STATISTICS_WRITING_DATE_UTC             : 2016-06-26 10:42:05
_STATISTICS_TAGS                         : BPS DURATION NUMBER_OF_FRAMES NUMBER_OF_BYTES
Видео
Идентификатор                            : 1
Формат                                   : AVC
Формат/Информация                        : Advanced Video Codec
Профиль формата                          : [url=mailto:High@L4.1]High@L4.1[/url]
Параметр CABAC формата                   : Да
Параметр ReFrames формата                : 9 кадров
Идентификатор кодека                     : V_MPEG4/ISO/AVC
Продолжительность                        : 1 ч. 49 м.
Вид битрейта                             : Постоянный
Битрейт                                  : 3547 Кбит/сек
Номинальный битрейт                      : 3900 Кбит/сек / 3900 Кбит/сек
Ширина                                   : 1280 пикселей
Высота                                   : 690 пикселей
Соотношение сторон                       : 1,85:1
Режим частоты кадров                     : Постоянный
Частота кадров                           : 23,976 кадра/сек
Стандарт вещания                         : Component
Цветовое пространство                    : YUV
Субдискретизация насыщенности            : 4:2:0
Битовая глубина                          : 8 бит
Тип развёртки                            : Прогрессивная
Бит/(Пиксели*Кадры)                      : 0.167
Размер потока                            : 2,71 Гбайт (93%)
Библиотека кодирования                   : x264 core 144
Настройки программы                      : cabac=1 / ref=9 / deblock=1:0:0 / analyse=0x3:0x113 / me=hex / subme=7 / psy=1 / psy_rd=1.00:0.00 / mixed_ref=1 / me_range=16 / chroma_me=1 / trellis=1 / 8x8dct=1 / cqm=1 / deadzone=21,11 / fast_pskip=1 / chroma_qp_offset=-2 / threads=12 / lookahead_threads=2 / sliced_threads=0 / slices=1 / nr=0 / decimate=1 / interlaced=0 / minigop=0 / stitchable=1 / constrained_intra=0 / bframes=3 / b_pyramid=0 / b_adapt=1 / b_bias=0 / direct=1 / weightb=1 / open_gop=1 / weightp=2 / keyint=250 / keyint_min=23 / scenecut=40 / intra_refresh=0 / rc_lookahead=40 / rc=cbr / mbtree=1 / bitrate=3900 / ratetol=1.0 / qcomp=0.60 / qpmin=3 / qpmax=69 / qpstep=4 / vbv_maxrate=3900 / vbv_bufsize=3900 / nal_hrd=cbr / filler=1 / ip_ratio=1.40 / aq=1:1.00
Язык                                     : Russian
Default                                  : Да
Forced                                   : Нет
Цветовой диапазон                        : Limited
Основные цвета                           : BT.709
Характеристики трансфера                 : BT.709
Коэффициенты матрицы                     : BT.709
Аудио
Идентификатор                            : 2
Формат                                   : AC-3
Формат/Информация                        : Audio Coding 3
Расширение режима                        : CM (complete main)
Параметр Endianness формата              : Big
Идентификатор кодека                     : A_AC3
Продолжительность                        : 1 ч. 49 м.
Вид битрейта                             : Постоянный
Битрейт                                  : 192 Кбит/сек
Каналы                                   : 2 канала
Расположение каналов                     : Front: L R
Частота                                  : 48,0 КГц
Битовая глубина                          : 16 бит
Метод сжатия                             : С потерями
Размер потока                            : 150 Мбайт (5%)
Язык                                     : Russian
Default                                  : Да
Forced                                   : Нет
Скриншоты:

[Цитировать]



Показать сообщения:    

Текущее время: 07-Дек 23:18

Часовой пояс: UTC + 3


Вы не можете начинать темы
Вы не можете отвечать на сообщения
Вы не можете редактировать свои сообщения
Вы не можете удалять свои сообщения
Вы не можете голосовать в опросах
Вы не можете прикреплять файлы к сообщениям
Вы не можете скачивать файлы

!ВНИМАНИЕ!
Сайт не предоставляет электронные версии произведений, а занимается лишь коллекционированием и каталогизацией ссылок, присылаемых и публикуемых на форуме нашими читателями. Если вы являетесь правообладателем какого-либо представленного материала и не желаете, чтобы ссылка на него находилась в нашем каталоге, свяжитесь с нами, и мы незамедлительно удалим ее. Файлы для обмена на трекере предоставлены пользователями сайта, и администрация не несет ответственности за их содержание. Просьба не заливать файлы, защищенные авторскими правами, а также файлы нелегального содержания!