[ Сегодня идет свободное скачивание без начисления Download ]


Статистика раздачи
Нет
 
   
 
Top  
 
 
Сент-Амур: Удовольствия любви / Saint Amour (2016) WEB-DL- Производство: Франция, Бельгия
Жанр: Комедия
Режиссер: Бенуа Делепин, Гюстав Керверн
Актеры: Жерар Депардьё, Бенуа Пульворд, Венсан Лакост, Селин Саллетт, Гюстав Керверн, Андреа Ферреоль, Кьяра Мастроянни, Изиа Ижлен, Ана Жирардо, Мишель Уэльбек
Описание: Крестьянский увалень Брюно мечтает о женитьбе. Он больше не хочет быть фермером и заниматься разведением племенных быков. Его отец, стремясь помочь сыну преодолеть кризис, отправляется с ним в поездку по винодельческим регионам Франции. В пути их сопровождает незадачливый ловелас Майк. Трое авантюристов не только наслаждаются восхитительными винами, но и попадают в самые невероятные любовные истории.

Возраст: 16+ (зрителям, достигшим 16 лет)
Дата мировой премьеры: 19 февраля 2016
Дата премьеры в России: 26 мая 2016

Продолжительность: 01:37:09
Качество видео: WEB-DL СЭМПЛ
Перевод: Дублированный (чистый звук)
Субтитры: Отсутствуют
Видео: AVC, 1920x1080 (16:9), 25.000 fps, 4 991 Kbps (0.096 bit/pixel)
Аудио: AC-3, 48.0 KHz, 2 ch, 384 Kbps, CBR

MediaInfo:

Общее
Уникальный идентификатор : 177180785768097752143555596388121932210 (0x854BC730C7D9DDDEAF5148B9605B71B2)
Полное имя : C:\Сент-Амур\Saint-Amour 2016 WEB-DL 1080p-LQ .mkv
Формат : Matroska
Версия формата : Version 4 / Version 2
Размер файла : 3,72 Гбайт
Продолжительность : 1 ч. 37 м.
Общий поток : 5484 Кбит/сек
Программа кодирования : mkvmerge v6.1.0 ('Old Devil') built on Mar 4 2013 09:10:42
Библиотека кодирования : libebml v1.3.0 + libmatroska v1.4.0
Видео
Идентификатор : 1
Формат : AVC
Формат/Информация : Advanced Video Codec
Профиль формата : High@L4
Параметр CABAC формата : Да
Параметр ReFrames формата : 4 кадра
Идентификатор кодека : V_MPEG4/ISO/AVC
Продолжительность : 1 ч. 37 м.
Битрейт : 4991 Кбит/сек
Ширина : 1920 пикселей
Высота : 1080 пикселей
Соотношение сторон : 16:9
Режим частоты кадров : Постоянный
Частота кадров : 25,000 кадров/сек
Цветовое пространство : YUV
Субдискретизация насыщенности : 4:2:0
Битовая глубина : 8 бит
Тип развёртки : Прогрессивная
Бит/(Пиксели*Кадры) : 0.096
Размер потока : 3,39 Гбайт (91%)
Язык : English
Default : Да
Forced : Нет
Аудио
Идентификатор : 2
Формат : AC-3
Формат/Информация : Audio Coding 3
Расширение режима : CM (complete main)
Параметр Endianness формата : Big
Идентификатор кодека : A_AC3
Продолжительность : 1 ч. 37 м.
Вид битрейта : Постоянный
Битрейт : 384 Кбит/сек
Каналы : 2 канала
Расположение каналов : Front: L R
Частота : 48,0 КГц
Частота кадров : 31,250 кадров/сек (1536 spf)
Метод сжатия : С потерями
Размер потока : 267 Мбайт (7%)
Язык : Russian
Default : Да
Forced : Да
Скриншоты:

[Цитировать]



Показать сообщения:    

Текущее время: 07-Дек 19:33

Часовой пояс: UTC + 3


Вы не можете начинать темы
Вы не можете отвечать на сообщения
Вы не можете редактировать свои сообщения
Вы не можете удалять свои сообщения
Вы не можете голосовать в опросах
Вы не можете прикреплять файлы к сообщениям
Вы не можете скачивать файлы

!ВНИМАНИЕ!
Сайт не предоставляет электронные версии произведений, а занимается лишь коллекционированием и каталогизацией ссылок, присылаемых и публикуемых на форуме нашими читателями. Если вы являетесь правообладателем какого-либо представленного материала и не желаете, чтобы ссылка на него находилась в нашем каталоге, свяжитесь с нами, и мы незамедлительно удалим ее. Файлы для обмена на трекере предоставлены пользователями сайта, и администрация не несет ответственности за их содержание. Просьба не заливать файлы, защищенные авторскими правами, а также файлы нелегального содержания!