[ Сегодня идет свободное скачивание без начисления Download ]


Статистика раздачи
Нет
 
   
 
Top  
 
 
Белый шум 2: Сияние / White Noise 2: The Light
«Иногда они возвращаются не одни.»
?Год выпуска: 2007
?Страна: США, Канада
?Производство: Gold Circle Films
?Жанр: Ужасы, фэнтези, триллер, драма
?Режиссёр: Патрик Люссье
?В ролях: Натан Филлион, Кэти Сакхофф, Крэйг Фэйрбрасс, Адриан Холмс, Кендалл Кросс, Терил Ротери, Уильям МакДональд, Джошуа Баллард, Дэвид Милчард, Теган Мосс
?Перевод: Профессиональный (полное дублирование) + Оригинал (Английский)
?Субтитры: Русские, Английские (полные отключаемые, UTF-8)
?Описание: Жена и ребенок главного героя картины Эйба Дэйла были зверски убиты на его глазах. Он не смог спасти их… Теперь у Эйба нет желания вести нормальную жизнь. Не найдя другого выхода, он решается на отчаянный шаг — совершает самоубийство.
Он идет по белому коридору к свету, к жене и сыну, которые зовут его. Они уже совсем близко, стоит только протянуть руку… Но внезапно все обрывается. Врачам удается вытащить Эйба с того света.
Клиническая смерть изменила его. Эйб понимает, что получил удивительную способность среди тысяч людей видеть тех, кому предстоит вскоре умереть. Герой одержим своей миссией спасти людей. Какая плата ждёт его за это? Ведь спасая очередного человека от гибели, он нарушает естественный баланс между жизнью и смертью.

?Качество: BDRip 1080p
?Продолжительность: 01:39:03 час.
?Формат: MKV
?Главы: Нет
?Видео кодек: AVC
?Аудио кодек: DTS
?Видео: 1920 x 816 (2.35:1), 23.976 fps, ~8746 kbps, 0.233 bit/ pixel
?Аудио №1: 48 kHz, DTS 5.1 ch, ~755 Kbps | Дубляж
?Аудио №2: 48 kHz, DTS 5.1 ch, ~768 Kbps | Оригинал (Английский)

MediaInfo

General
Unique ID : 215902006936360088599742472566045404360 (0xA26D36CA17F65E37A2190142CC97ECC8)
Complete name : D:\фильмы\Belyj.shum.2.Sijanie.2007.BDRip.1080p.mkv
Format : Matroska
Format version : Version 4 / Version 2
File size : 7.25 GiB
Duration : 1h 39mn
Overall bit rate : 10.5 Mbps
Movie name : Белый шум 2: Сияние / White Noise 2: The Light / 2007 / BDRip -- STarankov
Encoded date : UTC 2010-02-22 21:41:31
Writing application : mkvmerge v5.9.0 ('On The Loose') built on Dec 9 2012 15:37:01
Writing library : libebml v1.3.0 + libmatroska v1.4.0
Video
ID : 1
Format : AVC
Format/Info : Advanced Video Codec
Format profile : [email protected]
Format settings, CABAC : Yes
Format settings, ReFrames : 4 frames
Codec ID : V_MPEG4/ISO/AVC
Duration : 1h 39mn
Bit rate : 8 746 Kbps
Width : 1 920 pixels
Height : 816 pixels
Display aspect ratio : 2.35:1
Frame rate : 23.976 fps
Color space : YUV
Chroma subsampling : 4:2:0
Bit depth : 8 bits
Scan type : Progressive
Bits/(Pixel*Frame) : 0.233
Stream size : 6.05 GiB (83%)
Writing library : x264 core 129 r2230 1cffe9f
Encoding settings : cabac=1 / ref=4 / deblock=1:-1:-1 / analyse=0x3:0x113 / me=umh / subme=9 / psy=1 / psy_rd=1.00:0.15 / mixed_ref=1 / me_range=24 / chroma_me=1 / trellis=2 / 8x8dct=1 / cqm=0 / deadzone=21,11 / fast_pskip=1 / chroma_qp_offset=-3 / threads=6 / lookahead_threads=1 / sliced_threads=0 / nr=0 / decimate=1 / interlaced=0 / bluray_compat=0 / constrained_intra=0 / bframes=8 / b_pyramid=2 / b_adapt=2 / b_bias=0 / direct=1 / weightb=1 / open_gop=0 / weightp=2 / keyint=230 / keyint_min=23 / scenecut=40 / intra_refresh=0 / rc=crf / mbtree=0 / crf=21.0 / qcomp=0.60 / qpmin=0 / qpmax=69 / qpstep=4 / ip_ratio=1.40 / pb_ratio=1.30 / aq=1:1.00
Language : English
Default : Yes
Forced : No
Audio #1
ID : 2
Format : DTS
Format/Info : Digital Theater Systems
Codec ID : A_DTS
Duration : 1h 39mn
Bit rate mode : Constant
Bit rate : 755 Kbps
Channel(s) : 6 channels
Channel positions : Front: L C R, Side: L R, LFE
Sampling rate : 48.0 KHz
Bit depth : 24 bits
Compression mode : Lossy
Stream size : 535 MiB (7%)
Title : DUB (R5)
Language : Russian
Default : Yes
Forced : No
Audio #2
ID : 3
Format : E-AC-3
Format/Info : Audio Coding 3
Codec ID : A_EAC3
Duration : 1h 39mn
Bit rate mode : Constant
Bit rate : 768 Kbps
Channel(s) : 6 channels
Channel positions : Front: L C R, Side: L R, LFE
Sampling rate : 48.0 KHz
Compression mode : Lossy
Stream size : 544 MiB (7%)
Title : Original
Language : English
Default : No
Forced : No
Text #1
ID : 4
Format : UTF-8
Codec ID : S_TEXT/UTF8
Codec ID/Info : UTF-8 Plain Text
Title : русский
Language : Russian
Default : No
Forced : No
Text #2
ID : 5
Format : UTF-8
Codec ID : S_TEXT/UTF8
Codec ID/Info : UTF-8 Plain Text
Title : английский
Default : No
Forced : No

Скриншоты

[Стол заказов][Прием РГ][О нас "RG Dark Lords]

[Цитировать]



Показать сообщения:    

Текущее время: 06-Дек 15:14

Часовой пояс: UTC + 3


Вы не можете начинать темы
Вы не можете отвечать на сообщения
Вы не можете редактировать свои сообщения
Вы не можете удалять свои сообщения
Вы не можете голосовать в опросах
Вы не можете прикреплять файлы к сообщениям
Вы не можете скачивать файлы

!ВНИМАНИЕ!
Сайт не предоставляет электронные версии произведений, а занимается лишь коллекционированием и каталогизацией ссылок, присылаемых и публикуемых на форуме нашими читателями. Если вы являетесь правообладателем какого-либо представленного материала и не желаете, чтобы ссылка на него находилась в нашем каталоге, свяжитесь с нами, и мы незамедлительно удалим ее. Файлы для обмена на трекере предоставлены пользователями сайта, и администрация не несет ответственности за их содержание. Просьба не заливать файлы, защищенные авторскими правами, а также файлы нелегального содержания!