[ Сегодня идет свободное скачивание без начисления Download ]


Статистика раздачи
Скачал: [ 1 ]
 
   
 
Top  
 
 
Хроники мстителя / Vigilante Diaries (2016) HDRip - Производство: США / Oscar Gold Productions, Seskri Produktionz, Ton of Hats, Vallelonga Productions
Жанр: Боевик
Режиссер: Кристиан Сесма
Продюсер: Майк Хаттон, Кристиан Сесма, Ник Валлелонга ...
Актеры: Джейсон Мьюз, Куинтон Джексон, Пол Слоун, Кевин Л. Уокер, Майкл Джей Уайт, Майкл Мэдсен, Майк Хаттон, Джеймс Руссо, Арман Ншанян, Сальвадор Герерро мл.
Описание:
Главным героем выступает мужчина по имени Даг Глатт. Он – настоящий вышибала. С самого детства природа наделила парнишку невероятной силой. Когда Даг повзрослел, то устроился в бар и успокаивал буйных, паяных, выскочек. Вот уже на протяжении многих лет мужчина каждый день проводит в одном местном баре и выполняет одну и ту же работу. Он потерял уже всякую надежду на то, что может заняться в своей жизни чем-то другим. Да и чем заняться, если у него есть всего один талант – сила? После очередного успокоения буйных клиентов мужчина дает слово, что больше не будет вышибалой. Он устал, ему хочется покоя. И если бы в этот момент Глатт понимал, что сейчас изменится его судьба, жизнь полностью. То, как вышибала уверенно, умело и четко выставлял паяных, громких, хамоватых клиентов из бара на улицу видел один человек.

Рейтинг MPAA: R (лицам до 17 лет обязательно присутствие взрослого)
Дата мировой премьеры: 24 июня 2016
Дата российской премьеры: 28 июля 2016, «Магнум Пикчерз»
Продолжительность: 01:47:43
Качество видео: HDRip СЭМПЛ
Перевод: Одноголосый закадровый, любительский (Хихикающий доктор)
Субтитры: Английские (отдельным файлом)
Внимание: Присутствует ненормативная лексика
Видео: xvid, 720x304 (2.35:1), 23.976 fps, 2 328 Kbps (0.444 bit/pixel)
Аудио: AC-3, 44.1 KHz, 2 ch, 192 Kbps, CBR | Хихикающий доктор
Аудио: AC-3, 48.0 KHz, 2 ch, 192 Kbps, CBR | Оригинал

Mediainfo:

Формат                                   : AVI
Формат/Информация                        : Audio Video Interleave
Профиль формата                          : OpenDML
Размер файла                             : 2,05 Гбайт
Продолжительность                        : 1 ч. 47 м.
Общий поток                              : 2728 Кбит/сек
Название фильма                          : Release by basma4i
Программа кодирования                    : XviD4PSP 6.0 / 54.29.105
Видео
Идентификатор                            : 0
Формат                                   : xvid
Идентификатор кодека                     : xvid
Продолжительность                        : 1 ч. 47 м.
Битрейт                                  : 2328 Кбит/сек
Ширина                                   : 720 пикселей
Высота                                   : 304 пикселя
Соотношение сторон                       : 2,40:1
Частота кадров                           : 23,976 кадра/сек
Бит/(Пиксели*Кадры)                      : 0.444
Размер потока                            : 1,75 Гбайт (85%)
Аудио #1
Идентификатор                            : 1
Формат                                   : AC-3
Формат/Информация                        : Audio Coding 3
Расширение режима                        : CM (complete main)
Параметр Endianness формата              : Big
Идентификатор кодека                     : 2000
Продолжительность                        : 1 ч. 47 м.
Вид битрейта                             : Постоянный
Битрейт                                  : 192 Кбит/сек
Каналы                                   : 2 канала
Расположение каналов                     : Front: L R
Частота                                  : 44,1 КГц
Битовая глубина                          : 16 бит
Метод сжатия                             : С потерями
Размер потока                            : 148 Мбайт (7%)
Выравнивание                             : Соединение по промежуткам
Продолжительность промежутка             : 35  мс. (0,84 видеокадр)
Заголовок                                : Xixidok
Аудио #2
Идентификатор                            : 2
Формат                                   : AC-3
Формат/Информация                        : Audio Coding 3
Расширение режима                        : CM (complete main)
Параметр Endianness формата              : Big
Идентификатор кодека                     : 2000
Продолжительность                        : 1 ч. 47 м.
Вид битрейта                             : Постоянный
Битрейт                                  : 192 Кбит/сек
Каналы                                   : 2 канала
Расположение каналов                     : Front: L R
Частота                                  : 48,0 КГц
Битовая глубина                          : 16 бит
Метод сжатия                             : С потерями
Размер потока                            : 148 Мбайт (7%)
Выравнивание                             : Соединение по промежуткам
Продолжительность промежутка             : 32  мс. (0,77 видеокадр)
Формат                                   : SubRip
Размер файла                             : 98,8 Кбайт
Текст
Формат                                   : SubRip
Метод сжатия                             : Без потерь
Скриншоты:

[Цитировать]



Показать сообщения:    

Текущее время: 20-Фев 11:32

Часовой пояс: UTC + 3


Вы не можете начинать темы
Вы не можете отвечать на сообщения
Вы не можете редактировать свои сообщения
Вы не можете удалять свои сообщения
Вы не можете голосовать в опросах
Вы не можете прикреплять файлы к сообщениям
Вы не можете скачивать файлы

!ВНИМАНИЕ!
Сайт не предоставляет электронные версии произведений, а занимается лишь коллекционированием и каталогизацией ссылок, присылаемых и публикуемых на форуме нашими читателями. Если вы являетесь правообладателем какого-либо представленного материала и не желаете, чтобы ссылка на него находилась в нашем каталоге, свяжитесь с нами, и мы незамедлительно удалим ее. Файлы для обмена на трекере предоставлены пользователями сайта, и администрация не несет ответственности за их содержание. Просьба не заливать файлы, защищенные авторскими правами, а также файлы нелегального содержания!