[ Сегодня идет свободное скачивание без начисления Download ]


Статистика раздачи
Нет
 
   
 
Top  
 
 
Призрак в школе / Haunted High Год выпуска: 2012
Страна: США
Производство: Active Entertainment, Syfy
Жанр: ужасы, фантастика
Режиссер: Джеффри Скотт Ландо
В ролях: М. К. Гейни, Лорен Пеннингтон, Шон С. Филлипс, Джонатан Барон, Гейб Бигнёд, Харизма Карпентер, Марк Донато, Sergio Figueroa, Стефани Фишер, Грифф Ферст
Перевод: Профессиональный (полное дублирование)
Субтитры: Отсутствуют
Описание: Частную школу в новой Англии посещает демон — мёртвый директор.
[kp]611725[/kp] [imdb]tt2034009[/imdb]
Качество: HDRip
Продолжительность: 01:27:25
Формат: AVI
Видео кодек: XviD
Аудио кодек: AC3
Видео: 720x400 (1.80:1), 23.976 fps, XviD build 63, 2038 kbps avg, 0.29 bit/pixel
Аудио: 48 kHz, AC3 Dolby Digital, 2/0 (L,R) ch, 192 kbps

Media Info

Видео
Идентификатор                    : 0
Формат                           : MPEG-4 Visual
Профиль формата                  : Advanced Simple@L5
Параметр BVOP формата            : 2
Параметр QPel формата            : Нет
Параметр GMC формата             : Без точки перехода
Параметр матрицы формата         : Default (H.263)
Идентификатор кодека             : XVID
Идентификатор кодека/Подсказка   : XviD
Продолжительность                : 1 ч. 27 м.
Битрейт                          : 2039 Кбит/сек
Ширина                           : 720 пикс.
Высота                           : 400 пикс.
Соотношение сторон               : 16:9
Частота кадров                   : 23,976 кадр/сек
Цветовое пространство            : YUV
Подвыборка цветности             : 4:2:0
Битовая глубина                  : 8 бит
Тип развёртки                    : Прогрессивная
Метод сжатия                     : С потерями
Бит/(Пиксели*Кадры)              : 0.295
Размер потока                    : 1,25 Гбайт (91%)
Библиотека кодирования           : XviD 63
Аудио
Идентификатор                    : 1
Формат                           : AC-3
Формат/Информация                : Audio Coding 3
Расширение режима                : CM (complete main)
Идентификатор кодека             : 2000
Продолжительность                : 1 ч. 27 м.
Вид битрейта                     : Постоянный
Битрейт                          : 192 Кбит/сек
Каналы                           : 2 канала
Расположение каналов             : Front: L R
Частота                          : 48,0 КГц
Битовая глубина                  : 16 бит
Метод сжатия                     : С потерями
Размер потока                    : 120 Мбайт (9%)
Выравнивание                     : Разделение по промежуткам
Продолжительность промежутка     : 42  мс. (1,00 видеокадр)
Время предзагрузки промежутка    : 500 ms
[th]http://torrentsclub.org/pictures/808a60d887ac826d96...f8c5bad.jpg[/th]
[th]http://torrentsclub.org/pictures/0dc93497fae6780e89...b653b31.jpg[/th]
[th]http://torrentsclub.org/pictures/7df2ef6d0d65853e60...3ee6f36.jpg[/th]
[th]http://torrentsclub.org/pictures/b663c1f8147b668fb2...babec23.jpg[/th]
[th]http://torrentsclub.org/pictures/0edacd7a311d152f63...f8b9990.jpg[/th]

[Цитировать]



Показать сообщения:    

Текущее время: 09-Дек 08:53

Часовой пояс: UTC + 3


Вы не можете начинать темы
Вы не можете отвечать на сообщения
Вы не можете редактировать свои сообщения
Вы не можете удалять свои сообщения
Вы не можете голосовать в опросах
Вы не можете прикреплять файлы к сообщениям
Вы не можете скачивать файлы

!ВНИМАНИЕ!
Сайт не предоставляет электронные версии произведений, а занимается лишь коллекционированием и каталогизацией ссылок, присылаемых и публикуемых на форуме нашими читателями. Если вы являетесь правообладателем какого-либо представленного материала и не желаете, чтобы ссылка на него находилась в нашем каталоге, свяжитесь с нами, и мы незамедлительно удалим ее. Файлы для обмена на трекере предоставлены пользователями сайта, и администрация не несет ответственности за их содержание. Просьба не заливать файлы, защищенные авторскими правами, а также файлы нелегального содержания!