[ Сегодня идет свободное скачивание без начисления Download ]


Статистика раздачи
Нет
 
   
 
Top  
 
 
Викинги / Outlander
«It destroyed his world. He won't let it destroy ours.»
?Год выпуска: 2008
?Страна: США, Германия
?Производство: Ascendant Pictures, Outlander Productions, The Weinstein Company LLC
?Жанр: Фантастика, боевик, приключения
?Режиссёр: Ховард МакКейн
?В ролях: Джеймс Кэвизел, София Майлс, Джек Хьюстон, Джон Хёрт, Клифф Сондерс, Патрик Стивенсон, Эйдан Дивайн, Рон Перлман, Бэйли Мофан, Джон Неллес, Джеймс Роджерс, Скотт Оуэн, Петра Пражак, Оуэн Паттисон, Кэти Бергин, Тодд Годин, Джон Бил, Тед Лудзик, Джеймс Бинкли, Лайам МакНамара, Брайан Ренфро, Эндрю Альберт
?Перевод: Профессиональный (двухголосый, закадровый) + Профессиональный (многоголосый, закадровый) + Авторский (одноголосый) + Оригинал (Английский)
?Озвучка: CP-Digital, Немахов
?Субтитры: Русские, английские
?Описание: Пришелец из далекой галактики терпит крушение на Земле во времена викингов. Однако он оказался не единственным выжившим в аварии. Опасный инопланетный хищник, содержавшийся в заточении на корабле, вырвался на свободу, и главному герою предстоит отыскать и уничтожить его с помощью одного из кланов викингов.

?Качество: BDRip 1080p
?Продолжительность: 01:55:08 час.
?Формат: MKV
?Главы: Есть
?Видео кодек: AVC
?Аудио кодек: AC3
?Видео: 1920 х 1080 (16:9), 23.976 fps, ~12.0 Mbps, 0.241 bit/ pixel
?Аудио №1: Русский: 48 kHz, AC3, 5.1 ch, ~640 kbps | Двухголосый, CP-Digital
?Аудио №2: Русский: 48 kHz, AC3, 5.1 ch, ~640 kbps | Многоголосый, R5
?Аудио №3: Русский: 48 kHz, AC3, 5.1 ch, ~448 kbps | Авторский, Немахов
?Аудио №4: Английский: 48 kHz, AC3, 5.1 ch, ~640 kbps | Оригинал

MediaInfo

General
Unique ID : 231124289556182913280587657709273422903 (0xADE0EB447216B813B8F5C5B356C31C37)
Complete name : D:\фильмы\Vikingi.2008.BDRip.1080p.mkv
Format : Matroska
Format version : Version 4 / Version 2
File size : 11.6 GiB
Duration : 1h 55mn
Overall bit rate : 14.4 Mbps
Encoded date : UTC 2010-02-22 21:41:31
Writing application : mkvmerge v5.9.0 ('On The Loose') built on Dec 9 2012 15:37:01
Writing library : libebml v1.3.0 + libmatroska v1.4.0
Video
ID : 1
Format : AVC
Format/Info : Advanced Video Codec
Format profile : High@L4.1
Format settings, CABAC : Yes
Format settings, ReFrames : 4 frames
Codec ID : V_MPEG4/ISO/AVC
Duration : 1h 55mn
Bit rate : 12.0 Mbps
Width : 1 920 pixels
Height : 1 080 pixels
Display aspect ratio : 16:9
Frame rate : 23.976 fps
Color space : YUV
Chroma subsampling : 4:2:0
Bit depth : 8 bits
Scan type : Progressive
Bits/(Pixel*Frame) : 0.241
Stream size : 9.42 GiB (82%)
Writing library : x264 core 129 r2230 1cffe9f
Encoding settings : cabac=1 / ref=4 / deblock=1:-3:-3 / analyse=0x3:0x133 / me=tesa / subme=11 / psy=1 / psy_rd=1.00:0.09 / mixed_ref=1 / me_range=48 / chroma_me=1 / trellis=2 / 8x8dct=1 / cqm=0 / deadzone=21,11 / fast_pskip=0 / chroma_qp_offset=-3 / threads=12 / lookahead_threads=2 / sliced_threads=0 / nr=0 / decimate=0 / interlaced=0 / bluray_compat=0 / constrained_intra=0 / bframes=5 / b_pyramid=2 / b_adapt=2 / b_bias=0 / direct=3 / weightb=1 / open_gop=0 / weightp=2 / keyint=240 / keyint_min=23 / scenecut=40 / intra_refresh=0 / rc_lookahead=60 / rc=2pass / mbtree=1 / bitrate=12000 / ratetol=1.0 / qcomp=0.60 / qpmin=0 / qpmax=69 / qpstep=4 / cplxblur=20.0 / qblur=0.5 / ip_ratio=1.40 / aq=1:0.80
Language : English
Default : Yes
Forced : No
Audio #1
ID : 2
Format : AC-3
Format/Info : Audio Coding 3
Mode extension : CM (complete main)
Codec ID : A_AC3
Duration : 1h 55mn
Bit rate mode : Constant
Bit rate : 640 Kbps
Channel(s) : 6 channels
Channel positions : Front: L C R, Side: L R, LFE
Sampling rate : 48.0 KHz
Bit depth : 16 bits
Compression mode : Lossy
Stream size : 527 MiB (4%)
Title : AC3 5.1ch 640 kbps - Двухголосый, CP-Digital
Language : Russian
Default : Yes
Forced : No
Audio #2
ID : 3
Format : AC-3
Format/Info : Audio Coding 3
Mode extension : CM (complete main)
Codec ID : A_AC3
Duration : 1h 55mn
Bit rate mode : Constant
Bit rate : 640 Kbps
Channel(s) : 6 channels
Channel positions : Front: L C R, Side: L R, LFE
Sampling rate : 48.0 KHz
Bit depth : 16 bits
Compression mode : Lossy
Stream size : 527 MiB (4%)
Title : AC3 5.1ch 640 kbps - Многоголосый, R5
Language : Russian
Default : No
Forced : No
Audio #3
ID : 4
Format : AC-3
Format/Info : Audio Coding 3
Mode extension : CM (complete main)
Codec ID : A_AC3
Duration : 1h 55mn
Bit rate mode : Constant
Bit rate : 448 Kbps
Channel(s) : 6 channels
Channel positions : Front: L C R, Side: L R, LFE
Sampling rate : 48.0 KHz
Bit depth : 16 bits
Compression mode : Lossy
Stream size : 369 MiB (3%)
Title : AC3 5.1ch 448 kbps - Авторский, Немахов
Language : Russian
Default : No
Forced : No
Audio #4
ID : 5
Format : AC-3
Format/Info : Audio Coding 3
Mode extension : CM (complete main)
Codec ID : A_AC3
Duration : 1h 55mn
Bit rate mode : Constant
Bit rate : 640 Kbps
Channel(s) : 6 channels
Channel positions : Front: L C R, Side: L R, LFE
Sampling rate : 48.0 KHz
Bit depth : 16 bits
Compression mode : Lossy
Stream size : 527 MiB (4%)
Title : AC3 5.1ch 640 kbps - Английский
Language : English
Default : No
Forced : No
Text #1
ID : 6
Format : UTF-8
Codec ID : S_TEXT/UTF8
Codec ID/Info : UTF-8 Plain Text
Title : Русские, CP-Digital
Language : Russian
Default : No
Forced : No
Text #2
ID : 7
Format : UTF-8
Codec ID : S_TEXT/UTF8
Codec ID/Info : UTF-8 Plain Text
Title : Русские, R5
Language : Russian
Default : No
Forced : No
Text #3
ID : 8
Format : UTF-8
Codec ID : S_TEXT/UTF8
Codec ID/Info : UTF-8 Plain Text
Title : Английские
Language : English
Default : No
Forced : No
Menu
00:00:00.000 : en:
00:19:59.698 : en:
00:39:59.397 : en:
00:59:59.095 : en:
01:19:58.794 : en:
01:39:58.492 : en:

Скриншоты

[Стол заказов][Прием РГ][О нас "RG Dark Lords]

[Цитировать]



Показать сообщения:    

Текущее время: 09-Дек 06:56

Часовой пояс: UTC + 3


Вы не можете начинать темы
Вы не можете отвечать на сообщения
Вы не можете редактировать свои сообщения
Вы не можете удалять свои сообщения
Вы не можете голосовать в опросах
Вы не можете прикреплять файлы к сообщениям
Вы не можете скачивать файлы

!ВНИМАНИЕ!
Сайт не предоставляет электронные версии произведений, а занимается лишь коллекционированием и каталогизацией ссылок, присылаемых и публикуемых на форуме нашими читателями. Если вы являетесь правообладателем какого-либо представленного материала и не желаете, чтобы ссылка на него находилась в нашем каталоге, свяжитесь с нами, и мы незамедлительно удалим ее. Файлы для обмена на трекере предоставлены пользователями сайта, и администрация не несет ответственности за их содержание. Просьба не заливать файлы, защищенные авторскими правами, а также файлы нелегального содержания!