[ Сегодня идет свободное скачивание без начисления Download ]


Статистика раздачи
Нет
 
   
 
Top  
 
 
Из Вегаса в Макао 3 / Du cheng feng yun III (2016) Страна: Гонконг Китай
Год выпуска: 2016
Жанр: драма, комедия
Продолжительность: 01:52:33
Режиссер: Вон Цзин
Автор сценария: Вон Цзин
В ролях: Салли Виктория Бэнсон, Джеки Чун, Ник Чун Ка-фай, Дэвид Чианг, Чоу Юнь-Фат, Мария Кордеро, Эндрю Даш, Чарльз Хюн, Джеки Хеунг
Описание: События разворачиваются на фоне свадьбы дочери Кена, которая выходит замуж за его протеже Винсента. Но в день свадьбы поступает звонок — таинственный враг планирует сорвать мероприятие, он даже подослал убийц, чтобы разобраться с авантюристом и его близкими...

Перевод: Любительский (одноголосый, закадровый) | den904
Субтитры: английские-Качество: BDRip 1080р
Формат: MKV
Видео кодек: AVC
Аудио кодек: AС3
Видео: 1920x804 (2.40:1), 24.000 fps, MPEG-4 AVC ~13.5 Mbps
Аудио №1: 48.0 kHz, AC3 Dolby Digital, 2/0 (L,R) ch, ~192.00 kbps | RUS / den904
Аудио №2: 48.0 kHz, AC3 Dolby Digital, 3/2 (L,C,R,l,r) + LFE ch, ~640 kbps avg | CHI / Cantonese
Формат субтитров: UTF-8 Plain Text
Дата премьеры (мир): 5 февраля 2016

Media Info

General
Unique ID : 200690080222707310739481253553141718008 (0x96FB80E5A75F4C4BAC4ABF8328541BF8)
Format : Matroska
Format version : Version 4 / Version 2
Overall bit rate : 14.6 Mbps
Encoded date : UTC 2016-06-29 22:05:18
Writing application : mkvmerge v8.5.2 ('Crosses') 64bit
Writing library : libebml v1.3.3 + libmatroska v1.4.4
DURATION : 00:00:44.000000000
NUMBER_OF_FRAMES : 16
NUMBER_OF_BYTES : 457
_STATISTICS_WRITING_APP : mkvmerge v8.5.2 ('Crosses') 64bit
_STATISTICS_WRITING_DATE_UTC : 2016-06-29 22:05:18
_STATISTICS_TAGS : BPS DURATION NUMBER_OF_FRAMES NUMBER_OF_BYTES
Video
ID : 1
Format : AVC
Format/Info : Advanced Video Codec
Format profile : High@L4.1
Format settings, CABAC : Yes
Format settings, ReFrames : 5 frames
Codec ID : V_MPEG4/ISO/AVC
Bit rate : 13.5 Mbps
Width : 1 920 pixels
Height : 804 pixels
Display aspect ratio : 2.40:1
Frame rate mode : Constant
Frame rate : 24.000 fps
Color space : YUV
Chroma subsampling : 4:2:0
Bit depth : 8 bits
Scan type : Progressive
Bits/(Pixel*Frame) : 0.365
Stream size : 72.4 MiB (92%)
Language : English
Default : Yes
Forced : No
DURATION : 00:00:43.709000000
NUMBER_OF_FRAMES : 1049
NUMBER_OF_BYTES : 77671110
_STATISTICS_WRITING_APP : mkvmerge v8.5.2 ('Crosses') 64bit
_STATISTICS_WRITING_DATE_UTC : 2016-06-29 22:05:18
_STATISTICS_TAGS : BPS DURATION NUMBER_OF_FRAMES NUMBER_OF_BYTES
Audio #1
ID : 2
Format : AC-3
Format/Info : Audio Coding 3
Mode extension : CM (complete main)
Format settings, Endianness : Big
Codec ID : A_AC3
Bit rate mode : Constant
Bit rate : 192 Kbps
Channel(s) : 2 channels
Channel positions : Front: L R
Sampling rate : 48.0 KHz
Compression mode : Lossy
Stream size : 1.03 MiB (1%)
Default : Yes
Forced : No
Audio #2
ID : 3
Format : AC-3
Format/Info : Audio Coding 3
Mode extension : CM (complete main)
Format settings, Endianness : Big
Codec ID : A_AC3
Bit rate mode : Constant
Bit rate : 640 Kbps
Channel(s) : 6 channels
Channel positions : Front: L C R, Side: L R, LFE
Sampling rate : 48.0 KHz
Compression mode : Lossy
Stream size : 3.43 MiB (4%)
Title : 粤语
Language : Chinese
Default : No
Forced : No
Text
ID : 4
Format : UTF-8
Codec ID : S_TEXT/UTF8
Codec ID/Info : UTF-8 Plain Text
Default : No
Forced : No

Скриншоты

[Цитировать]

где раздача?

[Цитировать]

54089
где раздача?
Проверяйте клиент

[Цитировать]

Рома вот твоя скорость

[Цитировать]

ARIS01, Без проблем скачал , стою на раздачи

[Цитировать]

54094ARIS01, Без проблем скачал , стою на раздачи
Спасибо! Онлайн посмотрел уже

[Цитировать]



Показать сообщения:    

Текущее время: 07-Дек 11:40

Часовой пояс: UTC + 3


Вы не можете начинать темы
Вы не можете отвечать на сообщения
Вы не можете редактировать свои сообщения
Вы не можете удалять свои сообщения
Вы не можете голосовать в опросах
Вы не можете прикреплять файлы к сообщениям
Вы не можете скачивать файлы

!ВНИМАНИЕ!
Сайт не предоставляет электронные версии произведений, а занимается лишь коллекционированием и каталогизацией ссылок, присылаемых и публикуемых на форуме нашими читателями. Если вы являетесь правообладателем какого-либо представленного материала и не желаете, чтобы ссылка на него находилась в нашем каталоге, свяжитесь с нами, и мы незамедлительно удалим ее. Файлы для обмена на трекере предоставлены пользователями сайта, и администрация не несет ответственности за их содержание. Просьба не заливать файлы, защищенные авторскими правами, а также файлы нелегального содержания!