[ Сегодня идет свободное скачивание без начисления Download ]


Статистика раздачи
Скачал: [ 2 ]
 
   
 
Top  
 
 
РекрутThe Recruit«Trust. Betrayal. Deception. In the C.I.A. nothing is what it seems»- Страна: США
Жанр: боевик, триллер, драма, мелодрама, криминал
Год выпуска: 2003
Продолжительность: 01:55:01
Перевод: Профессиональный (полное дублирование), 2 x Профессиональный (многоголосый, закадровый), 3 x Авторский, Оригинальный
Субтитры: русские (Forced), русские, английские.-Режиссер: Роджер Дональдсон / Roger Donaldson-В ролях: Аль Пачино (Walter Burke), Колин Фаррелл (James Douglas Clayton), Бриджет Мойнэхэн (Layla Moore), Гэбриел Махт (Zack), Кеннет Митчелл (Alan), Майк Рилба (Ronnie Gibson), Рон Лиа (Bill Rudolph, Dell Rep), Карл Прюнер (Dennis Slayne), Джини Колледжа (Co-Ed #1), Дженни Ливайн (Blonde with Cell Phone), Анджело Царучас (Cab Driver), Вероника Харник (Polygraph Interrogator)
Дублёры: Виктор Костецкий (Walter Burke), Александр Баргман (James Douglas Clayton), Юлия Рудина, Александр Машанов (Zack), Татьяна Иванова, Максим Сергеев (Ronnie Gibson), Станислав Концевич, Сергей Дьячков (Bill Rudolph, Dell Rep; Psychiatrist #1; Firing Range Instructor), Валерий Кухарешин (Dennis Slayne), Олег Куликович, Елена Ставрогина, Вадим Никитин (Rob Stevens; Psychiatrist #3)-Описание: Джеймс Клэйтон учится на последнем курсе Массачусетского технологического института и показывает отличные навыки в компьютерном программировании. Клэйтон является матерым хакером, что привлекает внимание спецслужб. Однажды к Джеймсу обращается человек из ЦРУ Уолтер Бёрк, который предлагает парню поступить на службу в управление, а в виде главной мотивации для вербовки он использует таинственное исчезновение отца Джеймса, которое произошло в начале 90-х годов. Заинтригованный Клэйтон соглашается, а позже проходит все необходимые проверки и попадает в тренировочный лагерь для рекрутов. Тренером ребят становится Уолтер Бёрк. Пройдя один тест за другим, Клэйтон демонстрирует прекрасные навыки шпиона, но проваливает последнюю проверку. Так он становится агентом без прикрытия, которому предстоит найти «крота», который частями похищает опасный вирус из Лэнгли.-
MPAA: PG-13 - Детям до 13 лет просмотр не желателен-Семпл-Качество: BDRip
Контейнер: MKV
Видео: AVC, 1280x544 (2.35:1), 3899 kbps, 23,976 fps, 0,234 bpp
Аудио №1: русский / AC3 / 2.0 / 48 kHz / 192 kbps / Дубляж
Аудио №2: русский / AC3 / 5.1 / 48 kHz / 448 kbps / MVO ( FDV )
Аудио №3: русский / AC3 / 5.1 / 48 kHz / 448 kbps / MVO ( Видеосервис )
Аудио №4: русский / AC3 / 5.1 / 48 kHz / 448 kbps / AVO ( Живов )
Аудио №5: русский / AC3 / 5.1 / 48 kHz / 384 kbps / AVO ( Володарский )
Аудио №6: русский / AC3 / 5.1 / 48 kHz / 448 kbps / АVO ( Есарёв )
Аудио №7: английский / AC3 / 5.1 / 48 kHz / 448 kbps
Навигация по главам: есть-

Media Info

Format : Matroska
Format version : Version 2
File size : 5.40 GiB
Duration : 1h 55mn
Overall bit rate : 6 717 Kbps
Movie name : = Рекрут / The Recruit (2003) BDRip 720p by SC Kosmos =
Encoded date : UTC 2016-06-29 20:52:37
Writing application : mkvmerge v5.8.0 ('No Sleep / Pillow') built on Sep 2 2012 15:37:04
Writing library : libebml v1.2.3 + libmatroska v1.3.0
Attachment : Yes
Video
ID : 1
Format : AVC
Format/Info : Advanced Video Codec
Format profile : High@L4.1
Format settings, CABAC : Yes
Format settings, ReFrames : 10 frames
Codec ID : V_MPEG4/ISO/AVC
Duration : 1h 55mn
Bit rate : 3 899 Kbps
Width : 1 280 pixels
Height : 544 pixels
Display aspect ratio : 2.35:1
Frame rate : 23.976 fps
Color space : YUV
Chroma subsampling : 4:2:0
Bit depth : 8 bits
Scan type : Progressive
Bits/(Pixel*Frame) : 0.234
Stream size : 3.03 GiB (56%)
Title : Рекрут / The Recruit (2003) BDRip 720p by SC Kosmos
Writing library : x264 core 146 r2538 121396c
Encoding settings : cabac=1 / ref=10 / deblock=1:-3:-3 / analyse=0x3:0x113 / me=umh / subme=11 / psy=1 / psy_rd=1.00:0.00 / mixed_ref=1 / me_range=32 / chroma_me=1 / trellis=2 / 8x8dct=1 / cqm=0 / deadzone=21,11 / fast_pskip=0 / chroma_qp_offset=-2 / threads=12 / lookahead_threads=3 / sliced_threads=0 / nr=0 / decimate=1 / interlaced=0 / bluray_compat=0 / constrained_intra=0 / bframes=12 / b_pyramid=2 / b_adapt=2 / b_bias=0 / direct=3 / weightb=1 / open_gop=0 / weightp=2 / keyint=240 / keyint_min=23 / scenecut=40 / intra_refresh=0 / rc_lookahead=50 / rc=2pass / mbtree=0 / bitrate=3899 / ratetol=1.0 / qcomp=0.60 / qpmin=0 / qpmax=69 / qpstep=4 / cplxblur=20.0 / qblur=0.5 / vbv_maxrate=62500 / vbv_bufsize=78125 / nal_hrd=none / filler=0 / ip_ratio=1.40 / pb_ratio=1.30 / aq=1:1.00 / zones=159040,165437,b=0.25
Language : English
Default : Yes
Forced : No
Audio #1
ID : 2
Format : AC-3
Format/Info : Audio Coding 3
Mode extension : CM (complete main)
Codec ID : A_AC3
Duration : 1h 55mn
Bit rate mode : Constant
Bit rate : 192 Kbps
Channel(s) : 2 channels
Channel positions : Front: L R
Sampling rate : 48.0 KHz
Bit depth : 16 bits
Compression mode : Lossy
Stream size : 158 MiB (3%)
Title : Дубляж
Language : Russian
Default : Yes
Forced : Yes
Audio #2
ID : 3
Format : AC-3
Format/Info : Audio Coding 3
Mode extension : CM (complete main)
Codec ID : A_AC3
Duration : 1h 55mn
Bit rate mode : Constant
Bit rate : 448 Kbps
Channel(s) : 6 channels
Channel positions : Front: L C R, Side: L R, LFE
Sampling rate : 48.0 KHz
Bit depth : 16 bits
Compression mode : Lossy
Stream size : 369 MiB (7%)
Title : MVO ( FDV )
Language : Russian
Default : No
Forced : No
Audio #3
ID : 4
Format : AC-3
Format/Info : Audio Coding 3
Mode extension : CM (complete main)
Codec ID : A_AC3
Duration : 1h 55mn
Bit rate mode : Constant
Bit rate : 448 Kbps
Channel(s) : 6 channels
Channel positions : Front: L C R, Side: L R, LFE
Sampling rate : 48.0 KHz
Bit depth : 16 bits
Compression mode : Lossy
Stream size : 369 MiB (7%)
Title : MVO ( Видеосервис )
Language : Russian
Default : No
Forced : No
Audio #4
ID : 5
Format : AC-3
Format/Info : Audio Coding 3
Mode extension : CM (complete main)
Codec ID : A_AC3
Duration : 1h 55mn
Bit rate mode : Constant
Bit rate : 448 Kbps
Channel(s) : 6 channels
Channel positions : Front: L C R, Side: L R, LFE
Sampling rate : 48.0 KHz
Bit depth : 16 bits
Compression mode : Lossy
Stream size : 369 MiB (7%)
Title : AVO ( Живов )
Language : Russian
Default : No
Forced : No
Audio #5
ID : 6
Format : AC-3
Format/Info : Audio Coding 3
Mode extension : CM (complete main)
Codec ID : A_AC3
Duration : 1h 55mn
Bit rate mode : Constant
Bit rate : 384 Kbps
Channel(s) : 6 channels
Channel positions : Front: L C R, Side: L R, LFE
Sampling rate : 48.0 KHz
Bit depth : 16 bits
Compression mode : Lossy
Stream size : 316 MiB (6%)
Title : AVO ( Володарский )
Language : Russian
Default : No
Forced : No
Audio #6
ID : 7
Format : AC-3
Format/Info : Audio Coding 3
Mode extension : CM (complete main)
Codec ID : A_AC3
Duration : 1h 55mn
Bit rate mode : Constant
Bit rate : 448 Kbps
Channel(s) : 6 channels
Channel positions : Front: L C R, Side: L R, LFE
Sampling rate : 48.0 KHz
Bit depth : 16 bits
Compression mode : Lossy
Stream size : 369 MiB (7%)
Title : AVO ( Есарёв )
Language : Russian
Default : No
Forced : No
Audio #7
ID : 8
Format : AC-3
Format/Info : Audio Coding 3
Mode extension : CM (complete main)
Codec ID : A_AC3
Duration : 1h 55mn
Bit rate mode : Constant
Bit rate : 448 Kbps
Channel(s) : 6 channels
Channel positions : Front: L C R, Side: L R, LFE
Sampling rate : 48.0 KHz
Bit depth : 16 bits
Compression mode : Lossy
Stream size : 369 MiB (7%)
Language : English
Default : No
Forced : No
Text #1
ID : 9
Format : UTF-8
Codec ID : S_TEXT/UTF8
Codec ID/Info : UTF-8 Plain Text
Title : Forced
Language : Russian
Default : Yes
Forced : Yes
Text #2
ID : 10
Format : UTF-8
Codec ID : S_TEXT/UTF8
Codec ID/Info : UTF-8 Plain Text
Language : Russian
Default : No
Forced : No
Text #3
ID : 11
Format : UTF-8
Codec ID : S_TEXT/UTF8
Codec ID/Info : UTF-8 Plain Text
Language : English
Default : No
Forced : No
Menu
00:00:00.000 : en:00:00:00.000
00:04:55.587 : en:00:04:55.587
00:10:49.983 : en:00:10:49.983
00:16:46.631 : en:00:16:46.631
00:23:38.459 : en:00:23:38.459
00:30:10.726 : en:00:30:10.726
00:39:13.434 : en:00:39:13.434
00:47:55.081 : en:00:47:55.081
00:55:53.225 : en:00:55:53.225
01:00:35.924 : en:01:00:35.924
01:06:27.692 : en:01:06:27.692
01:13:25.526 : en:01:13:25.526
01:20:16.478 : en:01:20:16.478
01:27:52.476 : en:01:27:52.476
01:35:01.946 : en:01:35:01.946
01:45:12.556 : en:01:45:12.556
-

Скриншоты


[Цитировать]



Показать сообщения:    

Текущее время: 11-Дек 09:03

Часовой пояс: UTC + 3


Вы не можете начинать темы
Вы не можете отвечать на сообщения
Вы не можете редактировать свои сообщения
Вы не можете удалять свои сообщения
Вы не можете голосовать в опросах
Вы не можете прикреплять файлы к сообщениям
Вы не можете скачивать файлы

!ВНИМАНИЕ!
Сайт не предоставляет электронные версии произведений, а занимается лишь коллекционированием и каталогизацией ссылок, присылаемых и публикуемых на форуме нашими читателями. Если вы являетесь правообладателем какого-либо представленного материала и не желаете, чтобы ссылка на него находилась в нашем каталоге, свяжитесь с нами, и мы незамедлительно удалим ее. Файлы для обмена на трекере предоставлены пользователями сайта, и администрация не несет ответственности за их содержание. Просьба не заливать файлы, защищенные авторскими правами, а также файлы нелегального содержания!