[ Сегодня идет свободное скачивание без начисления Download ]


Статистика раздачи
Качаю: [ 1 ]
Скачал: [ 12 ]
 
   
 
Top  
 
 
Святослав Ширинкин | Практика Java. Разработка Web приложения (2016) WEBRip - Автор (режиссер): Святослав Ширинкин
Производство: http://javawebinar.ru/basejava/
Жанр: программирование
Описание:
Приложение будет разрабатываться начиная со второго занятия, основываясь на базовых темах курса: объектная модель, коллекции, система ввода-вывода, работа с файлами, сериализация, работа с XML, SQL, персистентность в базу данных (PostgreSQL), сервлеты, технология JSP, веб-контейнер Tomcat, HTML, JavaScript, модульные тесты JUnit, java.util.Logging, система контроля версий Git. Данный курс направлен на быстрое получения необходимых знаний и практики, с тем, чтобы окончивший их смог успешно пройти собеседование и работать в команде разработчиков на языке Java. Для увеличения объема пройденного материала часть теории (типы, операции, управляющие конструкции, ...) будет Вашей домашней работой (по предоставленным материалам) с последующим закреплением в форме вопросов, обычно задаваемых на собеседовании. Курс будет построен на активном взаимодействии с обучаемыми: выбора оптимальной доменной модели; реализации, паттернов проектирования, дизайна разрабатываемого приложения. Побочным результатом курса будет ваше личное резюме java разработчика с одним из пунктов в списке достижений: разработка веб-приложения.
После лекции, через месяц у студента в голове остаётся 3% знаний. А если он выполнил упражнение на практике более 7 раз, то в памяти сохраняется 95% знаний + бонус. Студент, практикуя упражнение, открывает ещё 50% нюансов знаний, которые не были озвучены преподавателем.
Продолжительность: 12:30:00
Качество видео: WEBRip
Видео: AVC/H.264, 1280*720, ~560 Kbps
Аудио: AAC, 2 ch, 192 Kbps

Mediainfo:

Формат : MPEG-4
Профиль формата : Base Media / Version 2
Идентификатор кодека : mp42 (isom/mp42)
Размер файла : 143 Мбайт
Продолжительность : 26 м.
Режим общего битрейта : Переменный
Общий поток : 754 Кбит/сек
Дата кодирования : UTC 2014-12-05 21:43:20
Дата пометки : UTC 2014-12-05 21:43:20
gsst : 0
gstd : 1590775
gssd : B4A7DDA05MH1418306688047619
gshh : r5---sn-4g57kuee.googlevideo.com
Видео
Идентификатор : 1
Формат : AVC
Формат/Информация : Advanced Video Codec
Профиль формата : High@L3.1
Параметр CABAC формата : Да
Параметр ReFrames формата : 1 кадр
Параметр GOP формата : M=1, N=60
Идентификатор кодека : avc1
Идентификатор кодека/Информация : Advanced Video Coding
Продолжительность : 26 м.
Битрейт : 560 Кбит/сек
Максимальный битрейт : 3735 Кбит/сек
Ширина : 1280 пикселей
Высота : 720 пикселей
Соотношение сторон : 16:9
Режим частоты кадров : Постоянный
Частота кадров : 30,000 кадров/сек
Цветовое пространство : YUV
Субдискретизация насыщенности : 4:2:0
Битовая глубина : 8 бит
Тип развёртки : Прогрессивная
Бит/(Пиксели*Кадры) : 0.020
Размер потока : 106 Мбайт (74%)
Дата пометки : UTC 2014-12-05 21:43:30
Аудио
Идентификатор : 2
Формат : AAC
Формат/Информация : Advanced Audio Codec
Профиль формата : LC
Идентификатор кодека : 40
Продолжительность : 26 м.
Вид битрейта : Переменный
Битрейт : 192 Кбит/сек
Максимальный битрейт : 201 Кбит/сек
Каналы : 2 канала
Расположение каналов : Front: L R
Частота : 44,1 КГц
Частота кадров : 43,066 кадра/сек (1024 spf)
Метод сжатия : С потерями
Размер потока : 36,4 Мбайт (25%)
Заголовок : IsoMedia File Produced by Google, 5-11-2011
Дата кодирования : UTC 2016-05-05 21:43:27
Дата пометки : UTC 2016-05-05 21:43:30

Дополнительная информация:

Понимание и практика программирования на Java в объектно-ориентированном стиле.
Структурное (красивое и надежное) Java кодирование
По всем темам курса- подготовка к собеседованию на позицию Java- разработчик
Использование де-факто (lingua franca) стандартов в разработке ПО: IntelliJ IDEA, PostgreSQL, Tomcat, JUnit, FireBug, Git.
Итог курса- совместное написание с нуля сложного Web приложения на стеке: Servlets, JSP, JAXB, JDBC
Требование к участникам:
Умение программировать на любом языке.
Желательно иметь представление о XML, HTML, SQL, JavaScript.
Желание и возможность изучить простую часть материала (типы, операции, управляющие конструкции) в первой половине курса самостоятельно.
Скриншоты:

[Цитировать]



Показать сообщения:    

Текущее время: 11-Дек 16:55

Часовой пояс: UTC + 3


Вы не можете начинать темы
Вы не можете отвечать на сообщения
Вы не можете редактировать свои сообщения
Вы не можете удалять свои сообщения
Вы не можете голосовать в опросах
Вы не можете прикреплять файлы к сообщениям
Вы не можете скачивать файлы

!ВНИМАНИЕ!
Сайт не предоставляет электронные версии произведений, а занимается лишь коллекционированием и каталогизацией ссылок, присылаемых и публикуемых на форуме нашими читателями. Если вы являетесь правообладателем какого-либо представленного материала и не желаете, чтобы ссылка на него находилась в нашем каталоге, свяжитесь с нами, и мы незамедлительно удалим ее. Файлы для обмена на трекере предоставлены пользователями сайта, и администрация не несет ответственности за их содержание. Просьба не заливать файлы, защищенные авторскими правами, а также файлы нелегального содержания!