[ Сегодня идет свободное скачивание без начисления Download ]


Статистика раздачи
Скачал: [ 1 ]
 
   
 
Top  
 
 
Большой всплеск / A Bigger Splash (2015) BDRip 1080p - Производство: Италия, Франция, Studio Canal, Frenesy Film Production
Жанр: Триллер, Криминал, Детектив
Режиссер: Лука Гуаданьино
Продюсер: Майкл Костиган, Лука Гуаданьино, Оливье Курсон
Актеры: Тильда Суинтон, Маттиас Шонартс, Рэйф Файнс, Дакота Джонсон, Коррадо Гуццанти, Алессандро Феррара, Дэвид Маддалена, Сальваоре Габриэле, Ливио Франко Бландино, Аврора Клеман
Описание:
Рок-звезда Марианна Лэйн и ее бойфренд наслаждаются отдыхом на юге Италии. Островную идиллию пары нарушает визит Гарри, бывшего любовника Марианны, и его взрослой дочери. Легкомысленная игра, невинный флирт, настоящая страсть и всепоглощающая ревность обернутся для героев смертельной опасностью.

Возраст: 18+ (зрителям, достигшим 18 лет. запрещено для детей)
Рейтинг MPAA: R (лицам до 17 лет обязательно присутствие взрослого)
Дата мировой премьеры: 6 сентября 2015
Дата российской премьеры: 9 июня 2016, «Экспонента»
Дата выхода DVD/Blu-ray релиза: 11 июля 2016, «НД Плэй»
Продолжительность: 02:04:18
Качество видео: BDRip СЭМПЛ
Перевод: Дублированный (Чистый звук)
Вид субтитров: Отсутствуют
Реклама: Присутствуют голосовые и текстовые вставки рекламы
Видео: AVC, 1920x1040 (16:9), 24.000 fps, 14.8 Mbps (0.309 bit/pixel)
Аудио: AC-3, 48.0 KHz, 2 ch, 384 Kbps, CBR (Russian)
Аудио: DTS, 48.0 KHz, 6 ch, 1 510 Kbps, CBR (English)

Mediainfo:

Формат                                   : Matroska
Версия формата                           : Version 4 / Version 2
Размер файла                             : 14,8 Гбайт
Продолжительность                        : 2 ч. 4 м.
Общий поток                              : 17,1 Мбит/сек
Название фильма                          : A.Bigger.Splash.2015.1080p.BluRay.DTS.x264-HDMaNiAcS
Дата кодирования                         : UTC 2016-06-30 07:16:33
Программа кодирования                    : mkvmerge v8.3.0 ('Over the Horizon') 64bit
Библиотека кодирования                   : libebml v1.3.1 + libmatroska v1.4.2
DURATION                                 : 02:04:18.048000000
NUMBER_OF_FRAMES                         : 699192
NUMBER_OF_BYTES                          : 1406774304
_STATISTICS_WRITING_APP                  : mkvmerge v8.3.0 ('Over the Horizon') 64bit
_STATISTICS_WRITING_DATE_UTC             : 2016-06-30 07:16:33
_STATISTICS_TAGS                         : BPS DURATION NUMBER_OF_FRAMES NUMBER_OF_BYTES
Видео
Идентификатор                            : 1
Формат                                   : AVC
Формат/Информация                        : Advanced Video Codec
Профиль формата                          : [url=mailto:High@L4.1]High@L4.1[/url]
Параметр CABAC формата                   : Да
Параметр ReFrames формата                : 4 кадра
Идентификатор кодека                     : V_MPEG4/ISO/AVC
Продолжительность                        : 2 ч. 4 м.
Битрейт                                  : 14,8 Мбит/сек
Ширина                                   : 1920 пикселей
Высота                                   : 1040 пикселей
Соотношение сторон                       : 1,85:1
Режим частоты кадров                     : Постоянный
Частота кадров                           : 24,000 кадра/сек
Цветовое пространство                    : YUV
Субдискретизация насыщенности            : 4:2:0
Битовая глубина                          : 8 бит
Тип развёртки                            : Прогрессивная
Бит/(Пиксели*Кадры)                      : 0.309
Размер потока                            : 12,9 Гбайт (87%)
Библиотека кодирования                   : x264 core 146 r2538 121396c
Настройки программы                      : cabac=1 / ref=4 / deblock=1:-3:-3 / analyse=0x3:0x133 / me=tesa / subme=11 / psy=1 / psy_rd=1.04:0.00 / mixed_ref=1 / me_range=32 / chroma_me=1 / trellis=2 / 8x8dct=1 / cqm=0 / deadzone=21,11 / fast_pskip=0 / chroma_qp_offset=-2 / threads=60 / lookahead_threads=8 / sliced_threads=0 / nr=0 / decimate=0 / interlaced=0 / bluray_compat=0 / constrained_intra=0 / bframes=12 / b_pyramid=2 / b_adapt=2 / b_bias=0 / direct=3 / weightb=1 / open_gop=0 / weightp=2 / keyint=240 / keyint_min=24 / scenecut=40 / intra_refresh=0 / rc_lookahead=150 / rc=crf / mbtree=0 / crf=17.8 / qcomp=0.60 / qpmin=0 / qpmax=69 / qpstep=4 / vbv_maxrate=62500 / vbv_bufsize=78125 / crf_max=0.0 / nal_hrd=none / filler=0 / ip_ratio=1.40 / pb_ratio=1.30 / aq=1:0.80
Default                                  : Да
Forced                                   : Нет
Аудио #1
Идентификатор                            : 2
Формат                                   : AC-3
Формат/Информация                        : Audio Coding 3
Расширение режима                        : CM (complete main)
Параметр Endianness формата              : Big
Идентификатор кодека                     : A_AC3
Продолжительность                        : 2 ч. 4 м.
Вид битрейта                             : Постоянный
Битрейт                                  : 384 Кбит/сек
Каналы                                   : 2 канала
Расположение каналов                     : Front: L R
Частота                                  : 48,0 КГц
Битовая глубина                          : 16 бит
Метод сжатия                             : С потерями
Размер потока                            : 341 Мбайт (2%)
Язык                                     : Russian
Default                                  : Да
Forced                                   : Нет
Аудио #2
Идентификатор                            : 4
Формат                                   : DTS
Формат/Информация                        : Digital Theater Systems
Режим                                    : 16
Параметр Endianness формата              : Big
Идентификатор кодека                     : A_DTS
Продолжительность                        : 2 ч. 4 м.
Вид битрейта                             : Постоянный
Битрейт                                  : 1509 Кбит/сек
Каналы                                   : 6 каналов
Расположение каналов                     : Front: L C R, Side: L R, LFE
Частота                                  : 48,0 КГц
Битовая глубина                          : 24 бит
Метод сжатия                             : С потерями
Размер потока                            : 1,31 Гбайт (9%)
Заголовок                                : DTS 5.1
Язык                                     : English
Default                                  : Нет
Forced                                   : Нет
Текст
Идентификатор                            : 3
Формат                                   : UTF-8
Идентификатор кодека                     : S_TEXT/UTF8
Идентификатор кодека/Информация          : UTF-8 Plain Text
Default                                  : Да
Forced                                   : Да
Меню
00:00:00.000                             : en:Chapter 1
00:10:12.333                             : en:Chapter 2
00:19:03.250                             : en:Chapter 3
00:29:16.667                             : en:Chapter 4
00:39:19.875                             : en:Chapter 5
00:49:19.208                             : en:Chapter 6
01:01:37.750                             : en:Chapter 7
01:11:13.708                             : en:Chapter 8
01:21:06.167                             : en:Chapter 9
01:30:41.125                             : en:Chapter 10
01:40:09.708                             : en:Chapter 11
02:00:17.417                             : en:Chapter 12
Скриншоты:

[Цитировать]



Показать сообщения:    

Текущее время: 11-Дек 14:57

Часовой пояс: UTC + 3


Вы не можете начинать темы
Вы не можете отвечать на сообщения
Вы не можете редактировать свои сообщения
Вы не можете удалять свои сообщения
Вы не можете голосовать в опросах
Вы не можете прикреплять файлы к сообщениям
Вы не можете скачивать файлы

!ВНИМАНИЕ!
Сайт не предоставляет электронные версии произведений, а занимается лишь коллекционированием и каталогизацией ссылок, присылаемых и публикуемых на форуме нашими читателями. Если вы являетесь правообладателем какого-либо представленного материала и не желаете, чтобы ссылка на него находилась в нашем каталоге, свяжитесь с нами, и мы незамедлительно удалим ее. Файлы для обмена на трекере предоставлены пользователями сайта, и администрация не несет ответственности за их содержание. Просьба не заливать файлы, защищенные авторскими правами, а также файлы нелегального содержания!