[ Сегодня идет свободное скачивание без начисления Download ]


Статистика раздачи
Нет
 
   
 
Top  
 
 
Незваные гости / Shut In Информация о фильме
Название: Незваные гости
Оригинальное название: Shut In
Год выхода: 2015
Жанр: Ужасы, триллер, драма
Режиссер: Адам Шиндлер
В ролях: Рори Калкин, Летисия Хименез, Джек Кеси, Тимоти Т. МакКинни, Джошуа Микель, Бэт Рисграф, Мартин Старр
О фильме:
Анна страдает от агорафобии, поэтому, когда трое преступников врываются в ее дом, она не может заставить себя выбежать на улицу. Злоумышленники пока не знают, что боязнь открытого пространства — не единственное расстройство психики девушки.

Страна: США
Студия: Black Fish Films, Campbell Grobman Films, Jeff Rice Films, Vicarious Entertainment
Продолжительность: 01:30:19
Перевод: Дублированный | Чистый звук
Файл
Кодек: MPEG-4
Качество: HDRip-AVC
Видео: 764x320, 957 Kbit/s, 23.976 fps
Аудио: 48 kHz, AC3, 2.0, 192 Kbps |

M/I

General
Unique ID : 210112804450634772819660394640339288998 (0x9E124111E11697439DC72DA2966AC3A6)
Complete name : F:FILMSНОВЫЕНезваные гости.(2015).Line.HDRIP_AVC.[-=DoMiNo=-].mkv
Format : Matroska
Format version : Version 4 / Version 2
File size : 738 MiB
Duration : 1h 30mn
Overall bit rate : 1 142 Kbps
Movie name : Незваные гости
Encoded date : UTC 2016-06-30 17:14:31
Writing application : mkvmerge v8.3.0 ('Over the Horizon') 64bit
Writing library : libebml v1.3.1 + libmatroska v1.4.2 / Lavf57.25.100
Cover : Yes
Attachments : cover.jpg
ACTORS : Рори Калкин, Летисия Хименез, Джек Кеси, Тимоти Т. МакКинни, Джошуа Микель, Бэт Рисграф, Мартин Старр, показать всех
COUNTRY : США
DATE : 2015
DIRECTOR : Адам Шиндлер
ENCODING_INFO : MATROSKA,WEBM > MKV Произвольный / H264 > X264 VBR-2P 957kbps Произвольный / AC3 > AAC CBR 128kbps HE / DTS > AAC CBR 128kbps HE
GENRE : ужасы, триллер, драма
HD_VIDEO : 1
IMDB_RATING : 5.70
ITUNEXTC : mpaa|R|400|
MEDIA_TYPE : 9
ORIGINAL_TITLE : Shut In
PRODUCER : Лати Гробман, Эрик Олсен, Джефф Райс
RATING : 5.212
SYNOPSIS : Анна страдает от агорафобии, поэтому, когда трое преступников врываются в ее дом, она не может заставить себя выбежать на улицу. Злоумышленники пока не знают, что боязнь открытого пространства — не единственное расстройство психики девушки.
WRITER : Т.Дж. Симфел, Дэвид Уайт
Video
ID : 1
Format : AVC
Format/Info : Advanced Video Codec
Format profile : High@L4.1
Format settings, CABAC : Yes
Format settings, ReFrames : 12 frames
Codec ID : V_MPEG4/ISO/AVC
Duration : 1h 30mn
Bit rate : 957 Kbps
Width : 764 pixels
Height : 320 pixels
Display aspect ratio : 2.40:1
Frame rate mode : Constant
Frame rate : 24.000 fps
Color space : YUV
Chroma subsampling : 4:2:0
Bit depth : 8 bits
Scan type : Progressive
Bits/(Pixel*Frame) : 0.163
Stream size : 613 MiB (83%)
Writing library : x264 core 148 r2705M 3f5ed56
Encoding settings : cabac=1 / ref=12 / deblock=1:-3:-3 / analyse=0x3:0x133 / me=umh / subme=11 / psy=1 / psy_rd=1.00:0.10 / mixed_ref=1 / me_range=32 / chroma_me=1 / trellis=2 / 8x8dct=1 / cqm=0 / deadzone=21,11 / fast_pskip=0 / chroma_qp_offset=-3 / threads=5 / lookahead_threads=1 / sliced_threads=0 / nr=0 / decimate=1 / interlaced=0 / bluray_compat=0 / constrained_intra=0 / bframes=11 / b_pyramid=2 / b_adapt=2 / b_bias=0 / direct=3 / weightb=1 / open_gop=0 / weightp=2 / keyint=240 / keyint_min=24 / scenecut=40 / intra_refresh=0 / rc_lookahead=60 / rc=2pass / mbtree=1 / bitrate=957 / ratetol=1.0 / qcomp=0.60 / qpmin=1 / qpmax=69 / qpstep=4 / cplxblur=20.0 / qblur=0.5 / ip_ratio=1.40 / aq=1:1.00
Language : English
Default : Yes
Forced : No
Color range : Limited
Matrix coefficients : BT.709
Audio
ID : 2
Format : AC-3
Format/Info : Audio Coding 3
Mode extension : CM (complete main)
Format settings, Endianness : Big
Codec ID : A_AC3
Duration : 1h 29mn
Bit rate mode : Constant
Bit rate : 192 Kbps
Channel(s) : 2 channels
Channel positions : Front: L R
Sampling rate : 48.0 KHz
Frame rate : 31.250 fps (1536 spf)
Compression mode : Lossy
Delay relative to video : 21s 200ms
Stream size : 124 MiB (17%)
Title : DUB [Line]
Language : Russian
Default : Yes
Forced : No
Menu
00:00:00.000 : :Глава 1
00:03:05.135 : :Глава 2
00:06:52.347 : :Глава 3
00:11:37.707 : :Глава 4
00:16:07.754 : :Глава 5
00:21:35.949 : :Глава 6
00:26:22.067 : :Глава 7
00:29:52.449 : :Глава 8
00:34:30.152 : :Глава 9
00:39:41.517 : :Глава 10
00:44:02.389 : :Глава 11
00:48:46.500 : :Глава 12
00:53:00.966 : :Глава 13
00:58:54.406 : :Глава 14
01:03:40.525 : :Глава 15
01:06:54.076 : :Глава 16
01:12:00.667 : :Глава 17
01:16:01.068 : :Глава 18
01:21:20.847 : :Глава 19
01:24:51.229 : :Глава 20

Скриншоты

[Цитировать]



Показать сообщения:    

Текущее время: 10-Дек 11:48

Часовой пояс: UTC + 3


Вы не можете начинать темы
Вы не можете отвечать на сообщения
Вы не можете редактировать свои сообщения
Вы не можете удалять свои сообщения
Вы не можете голосовать в опросах
Вы не можете прикреплять файлы к сообщениям
Вы не можете скачивать файлы

!ВНИМАНИЕ!
Сайт не предоставляет электронные версии произведений, а занимается лишь коллекционированием и каталогизацией ссылок, присылаемых и публикуемых на форуме нашими читателями. Если вы являетесь правообладателем какого-либо представленного материала и не желаете, чтобы ссылка на него находилась в нашем каталоге, свяжитесь с нами, и мы незамедлительно удалим ее. Файлы для обмена на трекере предоставлены пользователями сайта, и администрация не несет ответственности за их содержание. Просьба не заливать файлы, защищенные авторскими правами, а также файлы нелегального содержания!