[ Сегодня идет свободное скачивание без начисления Download ]


Статистика раздачи
Нет
 
   
 
Top  
 
 
Однажды в Америке / Once Upon a Time in America
[Расширенная версия / Extended Collector's Cut]
«As boys, they made a pact to share their fortunes, their loves, their lives. As men, they shared a dream to rise from poverty to power. Forging an empire built on greed, violence and betrayal, their dream would end as a mystery that refuse to die.»- Год выпуска: 1984
Страна: Италия, США
Производство: Embassy International Pictures, PSO International, Rafran Cinematografica, The Ladd Company
Жанр: драма, криминал
Режиссер: Серджио Леоне | Sergio Leone
В ролях: Роберт Де Ниро, Джеймс Вудс, Элизабет МакГоверн, Дарлэнн Флюгель, Ричард Брайт, Герард Мерфи, Ольга Карлатос, Марио Брега, Фрэнк Джио, Карен Шалло, Клем Касерта, Фрэнк Систо, Джерри Стривелли, Марвин Скотт (I), Пол Херман, Джои Фэй, Танди Кронин, Ричард Зобель, Бакстер Харрис, Арнон Милчэн, Бруно Ианнон, Марсия Жан Кертц, Эстель Харрис, Ричард Фороньи, Клифф Кадни, Дач Миллер, Рэй Диттрих, Анджело Флорио, Джули Коэн, Тьюсдей Уэлд, Линда Ипанема, Трит Уильямс, Джеймс Хэйден, Александр Годфри, Джо Пеши, Ларри Рэпп, Дэнни Айелло, Уильям Форсайт, Берт Янг, Скотт Тилер, Дженнифер Конн
Перевод: Авторский (одноголосый закадровый) - Ю.Сербин (New) + Авторский (одноголосый закадровый) - Ю.Сербин (Old) + Оригинал (Английский)
Субтитры: softsub (SRT) - Русские, АнглийскиеОписание:
В бурные двадцатые годы, когда Америка веселилась под звуки джаза и каждый бродяга мечтал стать миллионером, в трущобах Нью-Йорка встретились несколько отчаянных парней. Убирая с дороги конкурентов, безжалостно карая предателей и нагло проворачивая хитроумные аферы, они стали королями преступного мира золотой эры «сухого закона». Они поклялись отдать жизнь друг за друга, зная, что самое главное для них — это дружба, долг и справедливость — не утопить в реках крови и бездонном океане денег. Спустя много лет судьба жестоко обошлась с легендарными гангстерами, заставив их исполнить свою клятву. Это случилось однажды в Америке…
-[imdb]tt0087843[/imdb] [kp]469[/kp]
Дата премьеры (мир): 17 февраля 1984
Релиз на DVD: 24 мая 2012, «CP Дистрибуция»
-Качество: BDRip - AVC | исх. Once Upon a Time in America 1984 Blu-ray ITA 1080p VC-1 DTS-HD MA 5.1-CtrlHD
Продолжительность: 04:11:00
Формат: MKV
Видео кодек: H.264
Аудио кодек: AC3
Видео: 1024x552 (1,85:1), 23,976 fps, H.264 ~3 000 kbps avg, 0.221 bit/pixel
Аудио #1: 48 kHz, AC3, 3/2 (L,C,R,l,r) + LFE ch, ~448.00 kbps avg | Авторский (одноголосый закадровый) - Ю.Сербин (New)
Аудио #2: 48 kHz, AC3, 3/2 (L,C,R,l,r) + LFE ch, ~448.00 kbps avg | Авторский (одноголосый закадровый) - Ю.Сербин (Old)
Аудио #3: 48 kHz, AC3, 3/2 (L,C,R,l,r) + LFE ch, ~448.00 kbps avg | Оригинал (Английский)

Media Info

Общее
Уникальный идентификатор                 : 239762710629849039641795112871306211145 (0xB4609E4F219CD9349BFAC9071F502F49)
Полное имя                               : C:\\Odnajdy.v.Amerike.1984.XviD.BDRip (AVC).mkv
Формат                                   : Matroska
Версия формата                           : Version 4 / Version 2
Размер файла                             : 7,62 Гбайт
Продолжительность                        : 4 ч. 11 м.
Общий поток                              : 4346 Кбит/сек
Название фильма                          : Once Upon a Time in America (Unrated) / 1984 - release by ==nnlabetik==
Дата кодирования                         : UTC 2010-02-22 21:41:31
Программа кодирования                    : mkvmerge v5.9.0 (\'On The Loose\') built on Dec  9 2012 15:37:01
Библиотека кодирования                   : libebml v1.3.0 + libmatroska v1.4.0
Видео
Идентификатор                            : 1
Формат                                   : AVC
Формат/Информация                        : Advanced Video Codec
Профиль формата                          : High@L4.1
Параметр CABAC формата                   : Да
Параметр ReFrames формата                : 8 кадров
Идентификатор кодека                     : V_MPEG4/ISO/AVC
Продолжительность                        : 4 ч. 11 м.
Битрейт                                  : 3000 Кбит/сек
Ширина                                   : 1024 пикселя
Высота                                   : 552 пикселя
Соотношение сторон                       : 1,85:1
Режим частоты кадров                     : Постоянный
Частота кадров                           : 24,000 кадра/сек
Цветовое пространство                    : YUV
Субдискретизация насыщенности            : 4:2:0
Битовая глубина                          : 8 бит
Тип развёртки                            : Прогрессивная
Бит/(Пиксели*Кадры)                      : 0.221
Размер потока                            : 5,11 Гбайт (67%)
Библиотека кодирования                   : x264 core 129 r2230 1cffe9f
Настройки программы                      : cabac=1 / ref=8 / deblock=1:-2:-1 / analyse=0x3:0x113 / me=umh / subme=11 / psy=1 / psy_rd=1.00:0.00 / mixed_ref=1 / me_range=32 / chroma_me=1 / trellis=2 / 8x8dct=1 / cqm=0 / deadzone=21,11 / fast_pskip=1 / chroma_qp_offset=-2 / threads=6 / lookahead_threads=1 / sliced_threads=0 / nr=0 / decimate=1 / interlaced=0 / bluray_compat=0 / constrained_intra=0 / bframes=11 / b_pyramid=2 / b_adapt=2 / b_bias=0 / direct=3 / weightb=1 / open_gop=0 / weightp=2 / keyint=230 / keyint_min=23 / scenecut=40 / intra_refresh=0 / rc=2pass / mbtree=0 / bitrate=3000 / ratetol=1.0 / qcomp=0.60 / qpmin=0 / qpmax=69 / qpstep=4 / cplxblur=20.0 / qblur=0.5 / ip_ratio=1.40 / pb_ratio=1.30 / aq=1:1.00
Язык                                     : English
Default                                  : Да
Forced                                   : Нет
Аудио #1
Идентификатор                            : 2
Формат                                   : AC-3
Формат/Информация                        : Audio Coding 3
Расширение режима                        : CM (complete main)
Параметр Endianness формата              : Big
Идентификатор кодека                     : A_AC3
Продолжительность                        : 4 ч. 11 м.
Вид битрейта                             : Постоянный
Битрейт                                  : 448 Кбит/сек
Каналы                                   : 6 каналов
Расположение каналов                     : Front: L C R, Side: L R, LFE
Частота                                  : 48,0 КГц
Битовая глубина                          : 16 бит
Метод сжатия                             : С потерями
Размер потока                            : 804 Мбайт (10%)
Заголовок                                : Юрий Сербин - новый
Язык                                     : Russian
Default                                  : Да
Forced                                   : Нет
Аудио #2
Идентификатор                            : 3
Формат                                   : AC-3
Формат/Информация                        : Audio Coding 3
Расширение режима                        : CM (complete main)
Параметр Endianness формата              : Big
Идентификатор кодека                     : A_AC3
Продолжительность                        : 4 ч. 11 м.
Вид битрейта                             : Постоянный
Битрейт                                  : 448 Кбит/сек
Каналы                                   : 6 каналов
Расположение каналов                     : Front: L C R, Side: L R, LFE
Частота                                  : 48,0 КГц
Битовая глубина                          : 16 бит
Метод сжатия                             : С потерями
Размер потока                            : 804 Мбайт (10%)
Заголовок                                : Юрий Сербин (Видеосервис)
Язык                                     : Russian
Default                                  : Нет
Forced                                   : Нет
Аудио #3
Идентификатор                            : 4
Формат                                   : AC-3
Формат/Информация                        : Audio Coding 3
Расширение режима                        : CM (complete main)
Параметр Endianness формата              : Big
Идентификатор кодека                     : A_AC3
Продолжительность                        : 4 ч. 11 м.
Вид битрейта                             : Постоянный
Битрейт                                  : 448 Кбит/сек
Каналы                                   : 6 каналов
Расположение каналов                     : Front: L C R, Side: L R, LFE
Частота                                  : 48,0 КГц
Битовая глубина                          : 16 бит
Метод сжатия                             : С потерями
Размер потока                            : 804 Мбайт (10%)
Заголовок                                : Оригинальный
Язык                                     : English
Default                                  : Нет
Forced                                   : Нет
Текст #1
Идентификатор                            : 5
Формат                                   : UTF-8
Идентификатор кодека                     : S_TEXT/UTF8
Идентификатор кодека/Информация          : UTF-8 Plain Text
Заголовок                                : Русские
Язык                                     : Russian
Default                                  : Да
Forced                                   : Нет
Текст #2
Идентификатор                            : 6
Формат                                   : UTF-8
Идентификатор кодека                     : S_TEXT/UTF8
Идентификатор кодека/Информация          : UTF-8 Plain Text
Заголовок                                : Английские
Язык                                     : English
Default                                  : Нет
Forced                                   : Нет
Меню
00:00:00.000                             : :Chapter 01
00:03:28.916                             : :Chapter 02
00:14:48.083                             : :Chapter 03
00:24:36.000                             : :Chapter 04
00:37:39.666                             : :Chapter 05
00:45:50.166                             : :Chapter 06
00:53:35.875                             : :Chapter 07
01:04:46.875                             : :Chapter 08
01:12:05.000                             : :Chapter 09
01:22:31.582                             : :Chapter 10
01:30:33.416                             : :Chapter 11
01:38:18.875                             : :Chapter 12
01:44:53.291                             : :Chapter 13
01:52:24.875                             : :Chapter 14
02:01:01.166                             : :Chapter 15
02:08:37.625                             : :Chapter 16
02:18:36.083                             : :Chapter 17
02:27:45.875                             : :Chapter 18
02:33:55.583                             : :Chapter 19
02:42:24.665                             : :Chapter 20
02:48:07.250                             : :Chapter 21
02:55:59.333                             : :Chapter 22
03:02:59.415                             : :Chapter 23
03:08:52.415                             : :Chapter 24
03:13:56.708                             : :Chapter 25
03:22:56.208                             : :Chapter 26
03:30:10.750                             : :Chapter 27
03:40:32.625                             : :Chapter 28
03:46:35.750                             : :Chapter 29
03:54:51.333                             : :Chapter 30
04:03:14.166                             : :Chapter 31
04:06:44.750                             : :Chapter 32

Скриншоты

[Цитировать]

Фильм супер! Смотрите не пожалеете!

[Цитировать]



Показать сообщения:    

Текущее время: 09-Дек 18:28

Часовой пояс: UTC + 3


Вы не можете начинать темы
Вы не можете отвечать на сообщения
Вы не можете редактировать свои сообщения
Вы не можете удалять свои сообщения
Вы не можете голосовать в опросах
Вы не можете прикреплять файлы к сообщениям
Вы не можете скачивать файлы

!ВНИМАНИЕ!
Сайт не предоставляет электронные версии произведений, а занимается лишь коллекционированием и каталогизацией ссылок, присылаемых и публикуемых на форуме нашими читателями. Если вы являетесь правообладателем какого-либо представленного материала и не желаете, чтобы ссылка на него находилась в нашем каталоге, свяжитесь с нами, и мы незамедлительно удалим ее. Файлы для обмена на трекере предоставлены пользователями сайта, и администрация не несет ответственности за их содержание. Просьба не заливать файлы, защищенные авторскими правами, а также файлы нелегального содержания!