[ Today is free to download without increasing Download ]

DL-List and Torrent activity
Дуэль / The Duel (2016) WEB-DL- Производство: США | Lionsgate Premiere, Atomic Entertainment (II), Mandeville Films
Жанр: Драма, Вестерн
Режиссер: Киран Дарси-Смит
Актеры: Лиам Хемсворт, Вуди Харрельсон, Алиси Брага, Эмори Коэн, Уильям Сэдлер, Бенедикт Сэмюэл, Рафаэль Сбардж, Сью-Линн Ансари, Кристофер Берри, Керри Кехилл
Фильм расскажет о техасском рейнджере Дэвиде, которого заслали во фронтир с целью расследования серии убийств. На месте ему предстоит познакомиться с Авраамом — проповедником, держащим в паническом страхе всю округу.

Рейтинг MPAA: R (лицам до 17 лет обязательно присутствие взрослого)
Дата мировой премьеры: 24 июня 2016
Дата российской премьеры: 1 декабря 2016, «Русский Репортаж»
Продолжительность: 01:50:08
Качество видео: WEB-DL Сэмпл
Перевод: Двуголосый закадровый, любительский (RecentFilms)
Язык субтитров: Английский
Вид субтитров: Отдельным файлом
Реклама: отсутствует
Видео: XviD, 720x304 (2.40:1), 23.976 fps, 1440 Kbps (0.274 bit/pixel)
Аудио: AC-3, 48.0 KHz, 2 ch, 384 Kbps, CBR


Complete name                            : \The.Duel.2016.WEB-DL\The.Duel.2016.WEB-DL.avi
Format                                   : AVI
Format/Info                              : Audio Video Interleave
File size                                : 1.41 GiB
Duration                                 : 1h 50mn
Overall bit rate                         : 1 833 Kbps
Writing application                      : VirtualDubMod | (build 2550/release)
Writing library                          : VirtualDubMod build 2550/release
ID                                       : 0
Format                                   : MPEG-4 Visual
Format profile                           : Simple@L5
Format settings, BVOP                    : No
Format settings, QPel                    : No
Format settings, GMC                     : No warppoints
Format settings, Matrix                  : Default (H.263)
Codec ID                                 : XVID
Codec ID/Hint                            : XviD
Duration                                 : 1h 50mn
Bit rate                                 : 1 440 Kbps
Width                                    : 720 pixels
Height                                   : 304 pixels
Display aspect ratio                     : 2.40:1
Frame rate                               : 23.976 fps
Color space                              : YUV
Chroma subsampling                       : 4:2:0
Bit depth                                : 8 bits
Scan type                                : Progressive
Compression mode                         : Lossy
Bits/(Pixel*Frame)                       : 0.274
Stream size                              : 1.11 GiB (79%)
Writing library                          : Lavc57.16.101
ID                                       : 1
Format                                   : AC-3
Format/Info                              : Audio Coding 3
Mode extension                           : CM (complete main)
Format settings, Endianness              : Big
Codec ID                                 : 2000
Duration                                 : 1h 50mn
Bit rate mode                            : Constant
Bit rate                                 : 384 Kbps
Channel(s)                               : 2 channels
Channel positions                        : Front: L R
Sampling rate                            : 48.0 KHz
Bit depth                                : 16 bits
Compression mode                         : Lossy
Stream size                              : 303 MiB (21%)
Alignment                                : Split accross interleaves
Interleave, duration                     : 42 ms (1.00 video frame)
Interleave, preload duration             : 500 ms


Display posts:    

Current time is: 21-Oct 19:43

All times are UTC + 3

You cannot post new topics in this forum
You cannot reply to topics in this forum
You cannot edit your posts in this forum
You cannot delete your posts in this forum
You cannot vote in polls in this forum
You cannot attach files in this forum
You cannot download files in this forum

The site does not give electronic versions of products, and is engaged only in a collecting and cataloguing of the references sent and published at a forum by our readers. If you are the legal owner of any submitted material and do not wish that the reference to it was in our catalogue, contact us and we shall immediately remove her. Files for an exchange on tracker are given by users of a site, and the administration does not bear the responsibility for their maintenance. The request to not fill in the files protected by copyrights, and also files of the illegal maintenance!