[ Today is free to download without increasing Download ]

DL-List and Torrent activity
Восставшие мертвецы: конец игры / Dead Rising: Endgame (2016) WEBRip - Производство: США / Contradiction Films
Жанр: Ужасы, Боевик
Режиссер: Пэт Уильямс
Продюсер: Тим Картер, Крис Фосс, Тодд Жиру
Актеры: Джесси Меткалф, Киган Коннор Трейси, Джессика Хэрмон, Деннис Хейсбёрт, Мари Авгеропулос, Тич Грант, Дакота Гуппи, Наоми Кайл, Стивен Лобо, Кертис Льюм
Журналист Чейз Картер снова выясняет интересные подробности о зомби-вирусе и правительстве...

Возраст: этот продукт не был классифицирован
Рейтинг MPAA: этот продукт не был классифицирован
Дата мировой премьеры: 20 июня 2016
Продолжительность: 01:32:55
Качество видео: WEBRip сэмпл
Перевод: Одноголосый закадровый, любительский (Хихикающий доктор)
Вид субтитров: Отсутствуют
Видео: Xvid, 720x304 (2.35:1), 23.976 fps, 1927 Kbps (0.367 bit/pixel)
Аудио: AC-3, 48.0 KHz, 2 ch, 192 Kbps, CBR


Complete name                  : C:\Фильмы\Dead.Rising.Endgame.2016.WEBRip.avi
Format                         : AVI
Format/Info                    : Audio Video Interleave
File size                      : 1.38 GiB
Duration                       : 1h 32mn
Overall bit rate               : 2 128 Kbps
Writing application            : VirtualDubMod | (build 2550/release)
Writing library                : VirtualDubMod build 2550/release
ID                             : 0
Format                         : MPEG-4 Visual
Format profile                 : Advanced Simple@L5
Format settings, BVOP          : 2
Format settings, QPel          : No
Format settings, GMC           : No warppoints
Format settings, Matrix        : Default (H.263)
Codec ID                       : XVID
Codec ID/Hint                  : XviD
Duration                       : 1h 32mn
Bit rate                       : 1 927 Kbps
Width                          : 720 pixels
Height                         : 304 pixels
Display aspect ratio           : 2.35:1
Frame rate                     : 23.976 fps
Color space                    : YUV
Chroma subsampling             : 4:2:0
Bit depth                      : 8 bits
Scan type                      : Progressive
Compression mode               : Lossy
Bits/(Pixel*Frame)             : 0.367
Stream size                    : 1.25 GiB (91%)
Writing library                : XviD 73
ID                             : 1
Format                         : AC-3
Format/Info                    : Audio Coding 3
Mode extension                 : CM (complete main)
Format settings, Endianness    : Big
Codec ID                       : 2000
Duration                       : 1h 32mn
Bit rate mode                  : Constant
Bit rate                       : 192 Kbps
Channel(s)                     : 2 channels
Channel positions              : Front: L R
Sampling rate                  : 48.0 KHz
Compression mode               : Lossy
Stream size                    : 128 MiB (9%)
Alignment                      : Split accross interleaves
Interleave, duration           : 42 ms (1.00 video frame)
Interleave, preload duration   : 500 ms


Display posts:    

Current time is: 28-Oct 15:15

All times are UTC + 3

You cannot post new topics in this forum
You cannot reply to topics in this forum
You cannot edit your posts in this forum
You cannot delete your posts in this forum
You cannot vote in polls in this forum
You cannot attach files in this forum
You cannot download files in this forum

The site does not give electronic versions of products, and is engaged only in a collecting and cataloguing of the references sent and published at a forum by our readers. If you are the legal owner of any submitted material and do not wish that the reference to it was in our catalogue, contact us and we shall immediately remove her. Files for an exchange on tracker are given by users of a site, and the administration does not bear the responsibility for their maintenance. The request to not fill in the files protected by copyrights, and also files of the illegal maintenance!