[ Сегодня идет свободное скачивание без начисления Download ]


Статистика раздачи
Буду качать: [ 1 ]
Качаю: [ 1 ]
Скачал: [ 1 ]
 
   
 
Top  
 
 
Биккулoв Рoдион | Дизaйнeр в кoнтакте 5.0 Перeзагрузка (2016) PCRec - Автор (режиссер): Биккулoв Рoдион
Жанр: Web - дизайн
Описание:
С 1 апреля 2016 года ВКонтакте ввел новый дизайн для всей социальной сети. Программа и уроки обучения не менялись, но адаптированы под новый дизайн в ВКонтакте. Научись создавать крутые работы по оформлению сообществ во ВКонтакте.
Вы научитесь:
- Оформлять аватарки, баннеры, посты, обложки товаров
- Создавать вики- страницы, верстать изображения и закреплять пост с меню
- Создавать уникальный дизайн в стиле "флэт", "волна", и "открытка"
- Делать вертикальную и горизонтальную вёрстку
Продолжительность: 9:12:10
Качество видео: PCRec
Видео: AVC/H.264, 1336x752, ~2107 Kbps
Аудио: AAC, 2 ch, 250 Kbps, 44.0 KHz, VBR

Mediainfo:

Общее
Полное имя                               : D:\1\Дизaйнeр в кoнтакте 5.0 Перeзагрузка (2016)\1.mp4
Формат                                   : MPEG-4
Профиль формата                          : Base Media
Идентификатор кодека                     : isom (isom)
Размер файла                             : 223 Мбайт
Продолжительность                        : 1 ч. 0 м.
Режим общего битрейта                    : Переменный
Общий поток                              : 518 Кбит/сек
Дата кодирования                         : UTC 2016-05-21 10:56:32
Дата пометки                             : UTC 2016-05-21 10:56:32
Программа кодирования                    : FormatFactory : [url=http://www.pcfreetime.com]www.pcfreetime.com[/url]
Видео
Идентификатор                            : 1
Формат                                   : MPEG-4 Visual
Профиль формата                          : Simple@L1
Параметр BVOP формата                    : Нет
Параметр QPel формата                    : Нет
Параметр GMC формата                     : Без точки перехода
Параметр матрицы формата                 : Default (H.263)
Идентификатор кодека                     : 20
Продолжительность                        : 1 ч. 0 м.
Вид битрейта                             : Переменный
Битрейт                                  : 390 Кбит/сек
Максимальный битрейт                     : 3991 Кбит/сек
Ширина                                   : 1336 пикселей
Высота                                   : 752 пикселя
Соотношение сторон                       : 16:9
Режим частоты кадров                     : Постоянный
Частота кадров                           : 30,000 кадров/сек
Цветовое пространство                    : YUV
Субдискретизация насыщенности            : 4:2:0
Битовая глубина                          : 8 бит
Тип развёртки                            : Прогрессивная
Метод сжатия                             : С потерями
Бит/(Пиксели*Кадры)                      : 0.013
Размер потока                            : 168 Мбайт (75%)
Библиотека кодирования                   : Lavc53.8.0
Дата кодирования                         : UTC 2016-05-21 10:56:32
Дата пометки                             : UTC 2016-05-21 10:56:58
Аудио
Идентификатор                            : 2
Формат                                   : AAC
Формат/Информация                        : Advanced Audio Codec
Профиль формата                          : LC
Идентификатор кодека                     : 40
Продолжительность                        : 1 ч. 0 м.
Вид битрейта                             : Переменный
Битрейт                                  : 126 Кбит/сек
Максимальный битрейт                     : 250 Кбит/сек
Каналы                                   : 2 канала
Расположение каналов                     : Front: L R
Частота                                  : 44,1 КГц
Частота кадров                           : 43,066 кадра/сек (1024 spf)
Метод сжатия                             : С потерями
Размер потока                            : 54,0 Мбайт (24%)
Дата кодирования                         : UTC 2016-05-21 10:56:46
Дата пометки                             : UTC 2016-05-21 10:56:58

Программа курса:

Лекция №1
- Подготовка Photoshop для работы
- Создание wiki страницы
- Закрепление поста
- Создания шаблона оформления группы под разные форматы
Лекция №2
- Горизонтальная разметка для wiki страницы
- Вертикальная разметка для wiki страницы
- Получение нарезанных изображений
- Wiki верстка полученных изображений
- Подстановка ссылок под каждую кнопку
Лекция №3
- Установка шрифтов
- Работа с фигурами
- Правильно размещение информации на аватарке, баннере, меню
- Работа с акцентами
- Работа со шрифтами
- Работа над читабельностью
- Работа с подложками
Лекция №4
- Добавление доп. фигур
- Работа с фигурами
- Работа со стилями слоя
- Создание эффекта открытки
- Создание объемной тени
Лекция №5
- Разбор основных цветовых гамм
- Основные правила использования цветов
- Поиск цветовых идей
- Создание эффекта волны
- Создание эффекта флет
Лекция №6
- Работа с пером
- Создание уникальной композиции
- Создание стиля "ШОВ"
- Задание для итоговой работы
Скриншоты:

[Цитировать]



Показать сообщения:    

Текущее время: 27-Апр 05:24

Часовой пояс: UTC + 6


Вы не можете начинать темы
Вы не можете отвечать на сообщения
Вы не можете редактировать свои сообщения
Вы не можете удалять свои сообщения
Вы не можете голосовать в опросах
Вы не можете прикреплять файлы к сообщениям
Вы не можете скачивать файлы

!ВНИМАНИЕ!
Сайт не предоставляет электронные версии произведений, а занимается лишь коллекционированием и каталогизацией ссылок, присылаемых и публикуемых на форуме нашими читателями. Если вы являетесь правообладателем какого-либо представленного материала и не желаете, чтобы ссылка на него находилась в нашем каталоге, свяжитесь с нами, и мы незамедлительно удалим ее. Файлы для обмена на трекере предоставлены пользователями сайта, и администрация не несет ответственности за их содержание. Просьба не заливать файлы, защищенные авторскими правами, а также файлы нелегального содержания!