[ Сегодня идет свободное скачивание без начисления Download ]


Статистика раздачи
Нет
 
   
 
Top  
 
 
Диверсант. Конец войны (2007) HDTV 1080i [H.264] (сезон 2, серии 10 из 10) - Производство: Россия, ПК "Слово" по заказу Первого канала
Жанр: Военный, Боевик
Режиссер: Игорь Зайцев
Актеры: Алексей Бардуков, Владислав Галкин, Александр Лыков, Кирилл Плетнев, Сабина Ахмедова, Тарас Бибич, Василий Бочкарев, Игорь Бочкин, Леонид Громов, Алексей Гуськов, Михаил Ефремов, Владимир Зайцев, Юрий Кузнецов, Маркус Кунце, Максим Лагашкин, Станислав Лесной, Владимир Меньшов, Александр Половцев, Вячеслав Разбегаев, Юлия Рутберг, Игорь Скляр, Анна Снаткина, Владимир Стержаков, Олег Табаков, Ольга Прохватыло и др.
Описание:
Немцы готовят разведгруппу из бывших советских военнопленных, которая будет заброшена в Крым в ложный партизанский отряд. Задача героев - уничтожить группу и под видом заброшенных диверсантов внедриться в лже отряд. Команда проводит несколько блестящих операций и встречает весну 1945г. в Берлине. Война закончена, но пути героев на время расходятся...

Возраст: 16+ (зрителям, достигшим 16 лет)
Продолжительность: ~00:47:00 серия
Качество видео: HDTV
Видео: AVC/H.264, 1920x1080, ~8574 kbps
Аудио: AC3, 6 ch, 384 kbps

Mediainfo:

Общее
Уникальный идентификатор                 : 185197760083966541751222376192278547245 (0x8B53CA8AA2C81A1F8D086B443FC04B2D)
Полное имя                               : J:\Диверсант (2004\Диверсант II\Диверсант. Конец войны 10 серий\Диверсант II. 1 серия.mkv
Формат                                   : Matroska
Версия формата                           : Version 4 / Version 2
Размер файла                             : 3,26 Гбайт
Продолжительность                        : 51 м.
Общий поток                              : 9140 Кбит/сек
Дата кодирования                         : UTC 2016-07-02 03:55:03
Программа кодирования                    : mkvmerge v6.2.0 ('Promised Land') built on Apr 28 2013 12:22:01
Библиотека кодирования                   : libebml v1.3.0 + libmatroska v1.4.0
Видео
Идентификатор                            : 1
Формат                                   : AVC
Формат/Информация                        : Advanced Video Codec
Профиль формата                          : [url=mailto:[email protected]][email protected][/url]
Параметр CABAC формата                   : Да
Параметр ReFrames формата                : 3 кадра
Идентификатор кодека                     : V_MPEG4/ISO/AVC
Продолжительность                        : 51 м.
Битрейт                                  : 8574 Кбит/сек
Ширина                                   : 1920 пикселей
Высота                                   : 1080 пикселей
Соотношение сторон                       : 16:9
Режим частоты кадров                     : Постоянный
Частота кадров                           : 25,000 кадров/сек
Стандарт вещания                         : Component
Цветовое пространство                    : YUV
Субдискретизация насыщенности            : 4:2:0
Битовая глубина                          : 8 бит
Тип развёртки                            : Чересстрочная
Порядок развёртки                        : Верхнее поле первое
Бит/(Пиксели*Кадры)                      : 0.165
Размер потока                            : 3,06 Гбайт (94%)
Заголовок                                : Диверсант II (2007)
Язык                                     : Russian
Default                                  : Да
Forced                                   : Нет
Основные цвета                           : BT.709
Характеристики трансфера                 : BT.709
Коэффициенты матрицы                     : BT.709
Аудио
Идентификатор                            : 2
Формат                                   : AC-3
Формат/Информация                        : Audio Coding 3
Расширение режима                        : CM (complete main)
Параметр Endianness формата              : Big
Идентификатор кодека                     : A_AC3
Продолжительность                        : 51 м.
Вид битрейта                             : Постоянный
Битрейт                                  : 384 Кбит/сек
Каналы                                   : 6 каналов
Расположение каналов                     : Front: L C R, Side: L R, LFE
Частота                                  : 48,0 КГц
Битовая глубина                          : 16 бит
Метод сжатия                             : С потерями
Задержка видео                           : -120 мс.
Размер потока                            : 140 Мбайт (4%)
Заголовок                                : AC3, 6 ch, 384 kbps
Язык                                     : Russian
Default                                  : Да
Forced                                   : Нет
Общее
Уникальный идентификатор                 : 204116168980441139164560318599226822068 (0x998F581D50829B9CA6431DD7B1E58DB4)
Полное имя                               : J:\Диверсант (2004\Диверсант II\Диверсант. Конец войны 10 серий\Диверсант II. 10 серия.mkv
Формат                                   : Matroska
Версия формата                           : Version 4 / Version 2
Размер файла                             : 2,55 Гбайт
Продолжительность                        : 44 м.
Общий поток                              : 8193 Кбит/сек
Дата кодирования                         : UTC 2016-07-02 15:23:08
Программа кодирования                    : mkvmerge v6.2.0 ('Promised Land') built on Apr 28 2013 12:22:01
Библиотека кодирования                   : libebml v1.3.0 + libmatroska v1.4.0
Видео
Идентификатор                            : 1
Формат                                   : AVC
Формат/Информация                        : Advanced Video Codec
Профиль формата                          : [url=mailto:[email protected]][email protected][/url]
Параметр CABAC формата                   : Да
Параметр ReFrames формата                : 3 кадра
Идентификатор кодека                     : V_MPEG4/ISO/AVC
Продолжительность                        : 44 м.
Битрейт                                  : 7646 Кбит/сек
Ширина                                   : 1920 пикселей
Высота                                   : 1080 пикселей
Соотношение сторон                       : 16:9
Режим частоты кадров                     : Постоянный
Частота кадров                           : 25,000 кадров/сек
Стандарт вещания                         : Component
Цветовое пространство                    : YUV
Субдискретизация насыщенности            : 4:2:0
Битовая глубина                          : 8 бит
Тип развёртки                            : Чересстрочная
Порядок развёртки                        : Верхнее поле первое
Бит/(Пиксели*Кадры)                      : 0.147
Размер потока                            : 2,38 Гбайт (93%)
Заголовок                                : Диверсант II (2007)
Язык                                     : Russian
Default                                  : Да
Forced                                   : Нет
Основные цвета                           : BT.709
Характеристики трансфера                 : BT.709
Коэффициенты матрицы                     : BT.709
Аудио
Идентификатор                            : 2
Формат                                   : AC-3
Формат/Информация                        : Audio Coding 3
Расширение режима                        : CM (complete main)
Параметр Endianness формата              : Big
Идентификатор кодека                     : A_AC3
Продолжительность                        : 44 м.
Вид битрейта                             : Постоянный
Битрейт                                  : 384 Кбит/сек
Каналы                                   : 6 каналов
Расположение каналов                     : Front: L C R, Side: L R, LFE
Частота                                  : 48,0 КГц
Битовая глубина                          : 16 бит
Метод сжатия                             : С потерями
Задержка видео                           : -40 мс.
Размер потока                            : 123 Мбайт (5%)
Заголовок                                : AC3, 6 ch, 384 kbps
Язык                                     : Russian
Default                                  : Да
Forced                                   : Нет
Общее
Уникальный идентификатор                 : 175871602902172183371565053193495088456 (0x844FA37DE3A5A05BB8C6F1C293C58D48)
Полное имя                               : J:\Диверсант (2004\Диверсант II\Диверсант. Конец войны 10 серий\Диверсант II. 2 серия.mkv
Формат                                   : Matroska
Версия формата                           : Version 4 / Version 2
Размер файла                             : 3,22 Гбайт
Продолжительность                        : 45 м.
Общий поток                              : 10,1 Мбит/сек
Дата кодирования                         : UTC 2016-07-02 13:35:34
Программа кодирования                    : mkvmerge v6.2.0 ('Promised Land') built on Apr 28 2013 12:22:01
Библиотека кодирования                   : libebml v1.3.0 + libmatroska v1.4.0
Видео
Идентификатор                            : 1
Формат                                   : AVC
Формат/Информация                        : Advanced Video Codec
Профиль формата                          : [url=mailto:[email protected]][email protected][/url]
Параметр CABAC формата                   : Да
Параметр ReFrames формата                : 3 кадра
Идентификатор кодека                     : V_MPEG4/ISO/AVC
Продолжительность                        : 45 м.
Битрейт                                  : 9491 Кбит/сек
Ширина                                   : 1920 пикселей
Высота                                   : 1080 пикселей
Соотношение сторон                       : 16:9
Режим частоты кадров                     : Постоянный
Частота кадров                           : 25,000 кадров/сек
Стандарт вещания                         : Component
Цветовое пространство                    : YUV
Субдискретизация насыщенности            : 4:2:0
Битовая глубина                          : 8 бит
Тип развёртки                            : Чересстрочная
Порядок развёртки                        : Верхнее поле первое
Бит/(Пиксели*Кадры)                      : 0.183
Размер потока                            : 3,03 Гбайт (94%)
Заголовок                                : Диверсант II (2007)
Язык                                     : Russian
Default                                  : Да
Forced                                   : Нет
Основные цвета                           : BT.709
Характеристики трансфера                 : BT.709
Коэффициенты матрицы                     : BT.709
Аудио
Идентификатор                            : 2
Формат                                   : AC-3
Формат/Информация                        : Audio Coding 3
Расширение режима                        : CM (complete main)
Параметр Endianness формата              : Big
Идентификатор кодека                     : A_AC3
Продолжительность                        : 45 м.
Вид битрейта                             : Постоянный
Битрейт                                  : 384 Кбит/сек
Каналы                                   : 6 каналов
Расположение каналов                     : Front: L C R, Side: L R, LFE
Частота                                  : 48,0 КГц
Битовая глубина                          : 16 бит
Метод сжатия                             : С потерями
Задержка видео                           : -40 мс.
Размер потока                            : 126 Мбайт (4%)
Заголовок                                : AC3, 6 ch, 384 kbps
Язык                                     : Russian
Default                                  : Да
Forced                                   : Нет
Общее
Уникальный идентификатор                 : 189476320456976647002424202163336291687 (0x8E8BCFDAC737B623BAAF7EC6BFC4A567)
Полное имя                               : J:\Диверсант (2004\Диверсант II\Диверсант. Конец войны 10 серий\Диверсант II. 3 серия.mkv
Формат                                   : Matroska
Версия формата                           : Version 4 / Version 2
Размер файла                             : 2,37 Гбайт
Продолжительность                        : 37 м.
Общий поток                              : 9094 Кбит/сек
Дата кодирования                         : UTC 2016-07-02 13:38:48
Программа кодирования                    : mkvmerge v6.2.0 ('Promised Land') built on Apr 28 2013 12:22:01
Библиотека кодирования                   : libebml v1.3.0 + libmatroska v1.4.0
Видео
Идентификатор                            : 1
Формат                                   : AVC
Формат/Информация                        : Advanced Video Codec
Профиль формата                          : [url=mailto:[email protected]][email protected][/url]
Параметр CABAC формата                   : Да
Параметр ReFrames формата                : 3 кадра
Идентификатор кодека                     : V_MPEG4/ISO/AVC
Продолжительность                        : 37 м.
Битрейт                                  : 8529 Кбит/сек
Ширина                                   : 1920 пикселей
Высота                                   : 1080 пикселей
Соотношение сторон                       : 16:9
Режим частоты кадров                     : Постоянный
Частота кадров                           : 25,000 кадров/сек
Стандарт вещания                         : Component
Цветовое пространство                    : YUV
Субдискретизация насыщенности            : 4:2:0
Битовая глубина                          : 8 бит
Тип развёртки                            : Чересстрочная
Порядок развёртки                        : Верхнее поле первое
Бит/(Пиксели*Кадры)                      : 0.165
Размер потока                            : 2,22 Гбайт (94%)
Заголовок                                : Диверсант II (2007)
Язык                                     : Russian
Default                                  : Да
Forced                                   : Нет
Основные цвета                           : BT.709
Характеристики трансфера                 : BT.709
Коэффициенты матрицы                     : BT.709
Аудио
Идентификатор                            : 2
Формат                                   : AC-3
Формат/Информация                        : Audio Coding 3
Расширение режима                        : CM (complete main)
Параметр Endianness формата              : Big
Идентификатор кодека                     : A_AC3
Продолжительность                        : 37 м.
Вид битрейта                             : Постоянный
Битрейт                                  : 384 Кбит/сек
Каналы                                   : 6 каналов
Расположение каналов                     : Front: L C R, Side: L R, LFE
Частота                                  : 48,0 КГц
Битовая глубина                          : 16 бит
Метод сжатия                             : С потерями
Задержка видео                           : -40 мс.
Размер потока                            : 103 Мбайт (4%)
Заголовок                                : AC3, 6 ch, 384 kbps
Язык                                     : Russian
Default                                  : Да
Forced                                   : Нет
Общее
Уникальный идентификатор                 : 239764778487323676601784470040160119769 (0xB461044329796419A78F88FA33F22BD9)
Полное имя                               : J:\Диверсант (2004\Диверсант II\Диверсант. Конец войны 10 серий\Диверсант II. 4 серия.mkv
Формат                                   : Matroska
Версия формата                           : Version 4 / Version 2
Размер файла                             : 2,26 Гбайт
Продолжительность                        : 39 м.
Общий поток                              : 8123 Кбит/сек
Дата кодирования                         : UTC 2016-07-02 13:42:04
Программа кодирования                    : mkvmerge v6.2.0 ('Promised Land') built on Apr 28 2013 12:22:01
Библиотека кодирования                   : libebml v1.3.0 + libmatroska v1.4.0
Видео
Идентификатор                            : 1
Формат                                   : AVC
Формат/Информация                        : Advanced Video Codec
Профиль формата                          : [url=mailto:[email protected]][email protected][/url]
Параметр CABAC формата                   : Да
Параметр ReFrames формата                : 3 кадра
Идентификатор кодека                     : V_MPEG4/ISO/AVC
Продолжительность                        : 39 м.
Битрейт                                  : 7577 Кбит/сек
Ширина                                   : 1920 пикселей
Высота                                   : 1080 пикселей
Соотношение сторон                       : 16:9
Режим частоты кадров                     : Постоянный
Частота кадров                           : 25,000 кадров/сек
Стандарт вещания                         : Component
Цветовое пространство                    : YUV
Субдискретизация насыщенности            : 4:2:0
Битовая глубина                          : 8 бит
Тип развёртки                            : Чересстрочная
Порядок развёртки                        : Верхнее поле первое
Бит/(Пиксели*Кадры)                      : 0.146
Размер потока                            : 2,11 Гбайт (93%)
Заголовок                                : Диверсант II (2007)
Язык                                     : Russian
Default                                  : Да
Forced                                   : Нет
Основные цвета                           : BT.709
Характеристики трансфера                 : BT.709
Коэффициенты матрицы                     : BT.709
Аудио
Идентификатор                            : 2
Формат                                   : AC-3
Формат/Информация                        : Audio Coding 3
Расширение режима                        : CM (complete main)
Параметр Endianness формата              : Big
Идентификатор кодека                     : A_AC3
Продолжительность                        : 39 м.
Вид битрейта                             : Постоянный
Битрейт                                  : 384 Кбит/сек
Каналы                                   : 6 каналов
Расположение каналов                     : Front: L C R, Side: L R, LFE
Частота                                  : 48,0 КГц
Битовая глубина                          : 16 бит
Метод сжатия                             : С потерями
Задержка видео                           : -80 мс.
Размер потока                            : 109 Мбайт (5%)
Заголовок                                : AC3, 6 ch, 384 kbps
Язык                                     : Russian
Default                                  : Да
Forced                                   : Нет
Общее
Уникальный идентификатор                 : 214336738197003621724053395957442675140 (0xA13FC1150F2F615E857057DD7FC001C4)
Полное имя                               : J:\Диверсант (2004\Диверсант II\Диверсант. Конец войны 10 серий\Диверсант II. 5 серия.mkv
Формат                                   : Matroska
Версия формата                           : Version 4 / Version 2
Размер файла                             : 2,67 Гбайт
Продолжительность                        : 46 м.
Общий поток                              : 8161 Кбит/сек
Дата кодирования                         : UTC 2016-07-02 13:45:47
Программа кодирования                    : mkvmerge v6.2.0 ('Promised Land') built on Apr 28 2013 12:22:01
Библиотека кодирования                   : libebml v1.3.0 + libmatroska v1.4.0
Видео
Идентификатор                            : 1
Формат                                   : AVC
Формат/Информация                        : Advanced Video Codec
Профиль формата                          : [url=mailto:[email protected]][email protected][/url]
Параметр CABAC формата                   : Да
Параметр ReFrames формата                : 3 кадра
Идентификатор кодека                     : V_MPEG4/ISO/AVC
Продолжительность                        : 46 м.
Битрейт                                  : 7614 Кбит/сек
Ширина                                   : 1920 пикселей
Высота                                   : 1080 пикселей
Соотношение сторон                       : 16:9
Режим частоты кадров                     : Постоянный
Частота кадров                           : 25,000 кадров/сек
Стандарт вещания                         : Component
Цветовое пространство                    : YUV
Субдискретизация насыщенности            : 4:2:0
Битовая глубина                          : 8 бит
Тип развёртки                            : Чересстрочная
Порядок развёртки                        : Верхнее поле первое
Бит/(Пиксели*Кадры)                      : 0.147
Размер потока                            : 2,49 Гбайт (93%)
Заголовок                                : Диверсант II (2007)
Язык                                     : Russian
Default                                  : Да
Forced                                   : Нет
Основные цвета                           : BT.709
Характеристики трансфера                 : BT.709
Коэффициенты матрицы                     : BT.709
Аудио
Идентификатор                            : 2
Формат                                   : AC-3
Формат/Информация                        : Audio Coding 3
Расширение режима                        : CM (complete main)
Параметр Endianness формата              : Big
Идентификатор кодека                     : A_AC3
Продолжительность                        : 46 м.
Вид битрейта                             : Постоянный
Битрейт                                  : 384 Кбит/сек
Каналы                                   : 6 каналов
Расположение каналов                     : Front: L C R, Side: L R, LFE
Частота                                  : 48,0 КГц
Битовая глубина                          : 16 бит
Метод сжатия                             : С потерями
Задержка видео                           : -120 мс.
Размер потока                            : 128 Мбайт (5%)
Заголовок                                : AC3, 6 ch, 384 kbps
Язык                                     : Russian
Default                                  : Да
Forced                                   : Нет
Общее
Уникальный идентификатор                 : 244964296645234895801341076441969193531 (0xB84A684CC632FBBFA3A9DC874817F23B)
Полное имя                               : J:\Диверсант (2004\Диверсант II\Диверсант. Конец войны 10 серий\Диверсант II. 6 серия.mkv
Формат                                   : Matroska
Версия формата                           : Version 4 / Version 2
Размер файла                             : 2,78 Гбайт
Продолжительность                        : 44 м.
Общий поток                              : 9011 Кбит/сек
Дата кодирования                         : UTC 2016-07-02 13:49:22
Программа кодирования                    : mkvmerge v6.2.0 ('Promised Land') built on Apr 28 2013 12:22:01
Библиотека кодирования                   : libebml v1.3.0 + libmatroska v1.4.0
Видео
Идентификатор                            : 1
Формат                                   : AVC
Формат/Информация                        : Advanced Video Codec
Профиль формата                          : [url=mailto:[email protected]][email protected][/url]
Параметр CABAC формата                   : Да
Параметр ReFrames формата                : 3 кадра
Идентификатор кодека                     : V_MPEG4/ISO/AVC
Продолжительность                        : 44 м.
Битрейт                                  : 8448 Кбит/сек
Ширина                                   : 1920 пикселей
Высота                                   : 1080 пикселей
Соотношение сторон                       : 16:9
Режим частоты кадров                     : Постоянный
Частота кадров                           : 25,000 кадров/сек
Стандарт вещания                         : Component
Цветовое пространство                    : YUV
Субдискретизация насыщенности            : 4:2:0
Битовая глубина                          : 8 бит
Тип развёртки                            : Чересстрочная
Порядок развёртки                        : Верхнее поле первое
Бит/(Пиксели*Кадры)                      : 0.163
Размер потока                            : 2,61 Гбайт (94%)
Заголовок                                : Диверсант II (2007)
Язык                                     : Russian
Default                                  : Да
Forced                                   : Нет
Основные цвета                           : BT.709
Характеристики трансфера                 : BT.709
Коэффициенты матрицы                     : BT.709
Аудио
Идентификатор                            : 2
Формат                                   : AC-3
Формат/Информация                        : Audio Coding 3
Расширение режима                        : CM (complete main)
Параметр Endianness формата              : Big
Идентификатор кодека                     : A_AC3
Продолжительность                        : 44 м.
Вид битрейта                             : Постоянный
Битрейт                                  : 384 Кбит/сек
Каналы                                   : 6 каналов
Расположение каналов                     : Front: L C R, Side: L R, LFE
Частота                                  : 48,0 КГц
Битовая глубина                          : 16 бит
Метод сжатия                             : С потерями
Задержка видео                           : -120 мс.
Размер потока                            : 121 Мбайт (4%)
Заголовок                                : AC3, 6 ch, 384 kbps
Язык                                     : Russian
Default                                  : Да
Forced                                   : Нет
Общее
Уникальный идентификатор                 : 217550452283730701869397883914025566020 (0xA3AAB16B843C9495B2BC369031E9FF44)
Полное имя                               : J:\Диверсант (2004\Диверсант II\Диверсант. Конец войны 10 серий\Диверсант II. 7 серия.mkv
Формат                                   : Matroska
Версия формата                           : Version 4 / Version 2
Размер файла                             : 2,77 Гбайт
Продолжительность                        : 46 м.
Общий поток                              : 8556 Кбит/сек
Дата кодирования                         : UTC 2016-07-02 15:58:14
Программа кодирования                    : mkvmerge v6.2.0 ('Promised Land') built on Apr 28 2013 12:22:01
Библиотека кодирования                   : libebml v1.3.0 + libmatroska v1.4.0
Видео
Идентификатор                            : 1
Формат                                   : AVC
Формат/Информация                        : Advanced Video Codec
Профиль формата                          : [url=mailto:[email protected]][email protected][/url]
Параметр CABAC формата                   : Да
Параметр ReFrames формата                : 5 кадров
Идентификатор кодека                     : V_MPEG4/ISO/AVC
Битрейт                                  : 8001 Кбит/сек
Ширина                                   : 1920 пикселей
Высота                                   : 1080 пикселей
Соотношение сторон                       : 16:9
Режим частоты кадров                     : Переменный
Частота кадров в оригинале               : 25,000 кадров/сек
Цветовое пространство                    : YUV
Субдискретизация насыщенности            : 4:2:0
Битовая глубина                          : 8 бит
Тип развёртки                            : Прогрессивная
Библиотека кодирования                   : x264 core 146 r2538bm 121396c
Настройки программы                      : cabac=1 / ref=5 / deblock=1:0:0 / analyse=0x3:0x113 / me=umh / subme=8 / psy=1 / psy_rd=1.00:0.00 / mixed_ref=1 / me_range=16 / chroma_me=1 / trellis=1 / 8x8dct=1 / cqm=0 / deadzone=21,11 / fast_pskip=1 / chroma_qp_offset=-2 / threads=3 / lookahead_threads=1 / sliced_threads=0 / nr=0 / decimate=1 / interlaced=0 / bluray_compat=0 / constrained_intra=0 / bframes=3 / b_pyramid=2 / b_adapt=2 / b_bias=0 / direct=3 / weightb=1 / open_gop=0 / weightp=2 / keyint=250 / keyint_min=25 / scenecut=40 / intra_refresh=0 / rc_lookahead=50 / rc=crf / mbtree=1 / crf=17.6 / qcomp=0.60 / qpmin=0 / qpmax=69 / qpstep=4 / ip_ratio=1.40 / aq=1:1.00
Default                                  : Да
Forced                                   : Нет
Аудио
Идентификатор                            : 2
Формат                                   : AC-3
Формат/Информация                        : Audio Coding 3
Расширение режима                        : CM (complete main)
Параметр Endianness формата              : Big
Идентификатор кодека                     : A_AC3
Продолжительность                        : 46 м.
Вид битрейта                             : Постоянный
Битрейт                                  : 384 Кбит/сек
Каналы                                   : 6 каналов
Расположение каналов                     : Front: L C R, Side: L R, LFE
Частота                                  : 48,0 КГц
Битовая глубина                          : 16 бит
Метод сжатия                             : С потерями
Задержка видео                           : 2 с. 200 мс.
Размер потока                            : 127 Мбайт (4%)
Язык                                     : Russian
Default                                  : Да
Forced                                   : Нет
Общее
Уникальный идентификатор                 : 234651233027838557855166133961261980519 (0xB0882F018FA2BCB49CCE4D0A51421B67)
Полное имя                               : J:\Диверсант (2004\Диверсант II\Диверсант. Конец войны 10 серий\Диверсант II. 8 серия.mkv
Формат                                   : Matroska
Версия формата                           : Version 4 / Version 2
Размер файла                             : 2,57 Гбайт
Продолжительность                        : 49 м.
Общий поток                              : 7406 Кбит/сек
Дата кодирования                         : UTC 2016-07-02 15:16:02
Программа кодирования                    : mkvmerge v6.2.0 ('Promised Land') built on Apr 28 2013 12:22:01
Библиотека кодирования                   : libebml v1.3.0 + libmatroska v1.4.0
Видео
Идентификатор                            : 1
Формат                                   : AVC
Формат/Информация                        : Advanced Video Codec
Профиль формата                          : [url=mailto:[email protected]][email protected][/url]
Параметр CABAC формата                   : Да
Параметр ReFrames формата                : 3 кадра
Идентификатор кодека                     : V_MPEG4/ISO/AVC
Продолжительность                        : 49 м.
Битрейт                                  : 6875 Кбит/сек
Ширина                                   : 1920 пикселей
Высота                                   : 1080 пикселей
Соотношение сторон                       : 16:9
Режим частоты кадров                     : Постоянный
Частота кадров                           : 25,000 кадров/сек
Стандарт вещания                         : Component
Цветовое пространство                    : YUV
Субдискретизация насыщенности            : 4:2:0
Битовая глубина                          : 8 бит
Тип развёртки                            : Чересстрочная
Порядок развёртки                        : Верхнее поле первое
Бит/(Пиксели*Кадры)                      : 0.133
Размер потока                            : 2,39 Гбайт (93%)
Заголовок                                : Диверсант II (2007)
Язык                                     : Russian
Default                                  : Да
Forced                                   : Нет
Основные цвета                           : BT.709
Характеристики трансфера                 : BT.709
Коэффициенты матрицы                     : BT.709
Аудио
Идентификатор                            : 2
Формат                                   : AC-3
Формат/Информация                        : Audio Coding 3
Расширение режима                        : CM (complete main)
Параметр Endianness формата              : Big
Идентификатор кодека                     : A_AC3
Продолжительность                        : 49 м.
Вид битрейта                             : Постоянный
Битрейт                                  : 384 Кбит/сек
Каналы                                   : 6 каналов
Расположение каналов                     : Front: L C R, Side: L R, LFE
Частота                                  : 48,0 КГц
Битовая глубина                          : 16 бит
Метод сжатия                             : С потерями
Задержка видео                           : -80 мс.
Размер потока                            : 136 Мбайт (5%)
Заголовок                                : AC3, 6 ch, 384 kbps
Язык                                     : Russian
Default                                  : Да
Forced                                   : Нет
Общее
Уникальный идентификатор                 : 215705882435310450575174149093931684109 (0xA247711ADEE378B69638944D9E9D110D)
Полное имя                               : J:\Диверсант (2004\Диверсант II\Диверсант. Конец войны 10 серий\Диверсант II. 9 серия.mkv
Формат                                   : Matroska
Версия формата                           : Version 4 / Version 2
Размер файла                             : 2,68 Гбайт
Продолжительность                        : 46 м.
Общий поток                              : 8195 Кбит/сек
Дата кодирования                         : UTC 2016-07-02 15:20:34
Программа кодирования                    : mkvmerge v6.2.0 ('Promised Land') built on Apr 28 2013 12:22:01
Библиотека кодирования                   : libebml v1.3.0 + libmatroska v1.4.0
Видео
Идентификатор                            : 1
Формат                                   : AVC
Формат/Информация                        : Advanced Video Codec
Профиль формата                          : [url=mailto:[email protected]][email protected][/url]
Параметр CABAC формата                   : Да
Параметр ReFrames формата                : 3 кадра
Идентификатор кодека                     : V_MPEG4/ISO/AVC
Продолжительность                        : 46 м.
Битрейт                                  : 7648 Кбит/сек
Ширина                                   : 1920 пикселей
Высота                                   : 1080 пикселей
Соотношение сторон                       : 16:9
Режим частоты кадров                     : Постоянный
Частота кадров                           : 25,000 кадров/сек
Стандарт вещания                         : Component
Цветовое пространство                    : YUV
Субдискретизация насыщенности            : 4:2:0
Битовая глубина                          : 8 бит
Тип развёртки                            : Чересстрочная
Порядок развёртки                        : Верхнее поле первое
Бит/(Пиксели*Кадры)                      : 0.148
Размер потока                            : 2,50 Гбайт (93%)
Заголовок                                : Диверсант II (2007)
Язык                                     : Russian
Default                                  : Да
Forced                                   : Нет
Основные цвета                           : BT.709
Характеристики трансфера                 : BT.709
Коэффициенты матрицы                     : BT.709
Аудио
Идентификатор                            : 2
Формат                                   : AC-3
Формат/Информация                        : Audio Coding 3
Расширение режима                        : CM (complete main)
Параметр Endianness формата              : Big
Идентификатор кодека                     : A_AC3
Продолжительность                        : 46 м.
Вид битрейта                             : Постоянный
Битрейт                                  : 384 Кбит/сек
Каналы                                   : 6 каналов
Расположение каналов                     : Front: L C R, Side: L R, LFE
Частота                                  : 48,0 КГц
Битовая глубина                          : 16 бит
Метод сжатия                             : С потерями
Задержка видео                           : -80 мс.
Размер потока                            : 128 Мбайт (5%)
Заголовок                                : AC3, 6 ch, 384 kbps
Язык                                     : Russian
Default                                  : Да
Forced                                   : Нет

Дополнительная информация:

В фильме задействовано огромное число единиц реальной военной техники, использовавшейся на фронтах Второй мировой войны — от стрелкового оружия до артиллерийских орудий, танков и даже самолётов. Стрелковое оружие удалось раздобыть на местных киностудиях в Польше и на Украине — отыскались настоящие трёхлинейки, пистолеты ТТ, немецкие пулемёты MG-42 и пистолет-пулемёты MP-40, пулемёты «Максим».
В Польше снимали танки Т-34, «катюши», орудийную артиллерию, сотни участников массовки. Задействовали большое количество военных консультантов и военно-исторические клубы. В фильме так или иначе представлены войска четырёх стран — СССР, Германии, США, Польши. Для всех них специально шили форму. Для формы Красной Армии пришлось искать альтернативный материал для пошива гимнастёрок, так как оригинальная хлопчатобумажная ткань для военной формы, которая правдоподобно смотрелась бы на экране, давно не производится.
В Крыму под Бахчисараем в местечке Чуфут-Кале снимали базы партизанских отрядов — в уникальных природных пещерах. Крым — вообще поразительное место: под Балаклавой земля до сих пор вся в гильзах и осколках артиллерийских снарядов — бери руками и нагребай», — говорит режиссёр-постановщик фильма Игорь Зайцев, — «В Крыму же мы построили настоящий немецкий военный аэропорт, а в пещере на Ай-Петри была сооружена секретная научная лаборатория.
В начале съёмочного периода актёр Владислав Галкин получил серьёзную травму колена, но продолжил сниматься. В сценарий фильма внесли поправку, по которой его герой неудачно приземлился при высадке в Крыму, и теперь хромает. Уже после окончания съёмок Владиславу пришлось перенести несколько операций.
Скриншоты:

Дополнительные скриншоты:

[Цитировать]



Показать сообщения:    

Текущее время: 05-Дек 01:30

Часовой пояс: UTC + 3


Вы не можете начинать темы
Вы не можете отвечать на сообщения
Вы не можете редактировать свои сообщения
Вы не можете удалять свои сообщения
Вы не можете голосовать в опросах
Вы не можете прикреплять файлы к сообщениям
Вы не можете скачивать файлы

!ВНИМАНИЕ!
Сайт не предоставляет электронные версии произведений, а занимается лишь коллекционированием и каталогизацией ссылок, присылаемых и публикуемых на форуме нашими читателями. Если вы являетесь правообладателем какого-либо представленного материала и не желаете, чтобы ссылка на него находилась в нашем каталоге, свяжитесь с нами, и мы незамедлительно удалим ее. Файлы для обмена на трекере предоставлены пользователями сайта, и администрация не несет ответственности за их содержание. Просьба не заливать файлы, защищенные авторскими правами, а также файлы нелегального содержания!