[ Сегодня идет свободное скачивание без начисления Download ]


Статистика раздачи
Скачал: [ 1 ]
 
   
 
Top  
 
 
Пятница Информация о фильме
Название: Пятница
Год выхода: 2016
Жанр: Комедия
Режиссер: Евгений Шелякин
В ролях: Данила Козловский, Настасья Самбурская, Катерина Шпица, Павел Деревянко, Кирилл Плетнёв, Евгения Брик (Хиривская), Антон Шагин, Ян Цапник, Евгений Стычкин, Сергей Бурунов, Сергей Чирков, Аристарх Венес, Максим Емельянов, Никита Павленко, Михаил Полицеймако, Алексей Гришин, Антон Шурцев, Айгуль Мильштейн, Лилия Лаврова, Ирина Бутанаева, Елена Лотова, Александр Зельский, Наталья Бардо, Евгения Гирзекорн, Дарья Пугачева, Эммануил Виторган, Анжелика Каширина, Юлия Чиплиева
О фильме:
Что если азартный миллионер на одну ночь станет официантом, офисный лузер будет звездой самой яркой вечеринки, а двум «заклятым» друзьям придется искать кенгуру ночью в подмосковном лесу? У каждого своя пятница! Как она закончится для каждого, знает только утро субботы ;)

Страна: Россия
Студия: RSS Production
Продолжительность: 01:26:54
Перевод: Не требуется
Файл
Качество: BDRip-AVC (исх. Пятница (2016) Blu-ray Remux RUS 1080р AVC DTS-HD 5.1)
Кодек: MPEG-4 AVC
Видео: 1032x432 (2,40:1), 24 fps, MPEG-4 AVC ~3144 kbps avg, 0.294 bit/pixel
Аудио: AC3, 48 kHz, 6 ch, ~448.00 kbps avg
Субтитры: Отсутствуют
Семпл

Инфо-файл

Общее
Уникальный идентификатор : 188610244619133130043112803524461239205 (0x8DE50304DE06EF389606BC6FFCF89BA5)
Полное имя : Pyatnitca.2016.RUS.BDRip.x264.-HELLYWOOD..mkv
Формат : Matroska
Версия формата : Version 4 / Version 2
Размер файла : 2,18 Гбайт
Продолжительность : 1 ч. 26 м.
Общий поток : 3591 Кбит/сек
Название фильма : Пятница (2016)
Дата кодирования : UTC 2016-07-02 03:13:29
Программа кодирования : mkvmerge v5.9.0 ('On The Loose') built on Dec 15 2012 16:39:58
Библиотека кодирования : libebml v1.3.0 + libmatroska v1.4.0
Видео
Идентификатор : 1
Формат : AVC
Формат/Информация : Advanced Video Codec
Профиль формата : High@L4.1
Параметр CABAC формата : Да
Параметр ReFrames формата : 10 кадров
Идентификатор кодека : V_MPEG4/ISO/AVC
Продолжительность : 1 ч. 26 м.
Битрейт : 3144 Кбит/сек
Ширина : 1032 пикселя
Высота : 432 пикселя
Соотношение сторон : 2,40:1
Режим частоты кадров : Постоянный
Частота кадров : 24,000 кадра/сек
Цветовое пространство : YUV
Субдискретизация насыщенности : 4:2:0
Битовая глубина : 8 бит
Тип развёртки : Прогрессивная
Бит/(Пиксели*Кадры) : 0.294
Размер потока : 1,86 Гбайт (86%)
Заголовок : potroks
Библиотека кодирования : x264 core 146 r2538 121396c
Настройки программы : cabac=1 / ref=10 / deblock=1:-2:-2 / analyse=0x3:0x113 / me=umh / subme=11 / psy=1 / psy_rd=1.00:0.05 / mixed_ref=1 / me_range=48 / chroma_me=1 / trellis=2 / 8x8dct=1 / cqm=0 / deadzone=21,11 / fast_pskip=0 / chroma_qp_offset=-3 / threads=9 / lookahead_threads=2 / sliced_threads=0 / nr=0 / decimate=0 / interlaced=0 / bluray_compat=0 / constrained_intra=0 / bframes=11 / b_pyramid=2 / b_adapt=2 / b_bias=0 / direct=3 / weightb=1 / open_gop=0 / weightp=2 / keyint=240 / keyint_min=23 / scenecut=40 / intra_refresh=0 / rc_lookahead=60 / rc=2pass / mbtree=0 / bitrate=3144 / ratetol=1.0 / qcomp=0.70 / qpmin=0 / qpmax=69 / qpstep=4 / cplxblur=20.0 / qblur=0.5 / vbv_maxrate=14000 / vbv_bufsize=14000 / nal_hrd=none / filler=0 / ip_ratio=1.35 / pb_ratio=1.25 / aq=1:0.80
Язык : Russian
Default : Да
Forced : Да
Аудио
Идентификатор : 2
Формат : AC-3
Формат/Информация : Audio Coding 3
Расширение режима : CM (complete main)
Параметр Endianness формата : Big
Идентификатор кодека : A_AC3
Продолжительность : 1 ч. 26 м.
Вид битрейта : Постоянный
Битрейт : 448 Кбит/сек
Каналы : 6 каналов
Расположение каналов : Front: L C R, Side: L R, LFE
Частота : 48,0 КГц
Частота кадров : 31,250 кадров/сек (1536 spf)
Метод сжатия : С потерями
Размер потока : 279 Мбайт (12%)
Заголовок : Original | DD 5.1 @ 448 kbps
Язык : Russian
Default : Да
Forced : Нет
Меню
00:00:00.000 : en:(01)00:00:00:000
00:00:19.375 : en:(02)00:00:19:375
00:10:15.166 : en:(03)00:10:15:166
00:21:16.833 : en:(04)00:21:16:833
00:31:42.125 : en:(05)00:31:42:125
00:41:03.208 : en:(06)00:41:03:208
00:51:13.041 : en:(07)00:51:13:041
00:59:44.958 : en:(08)00:59:44:958
01:07:29.083 : en:(09)01:07:29:083

Скриншоты

[Цитировать]



Показать сообщения:    

Текущее время: 11-Дек 05:17

Часовой пояс: UTC + 3


Вы не можете начинать темы
Вы не можете отвечать на сообщения
Вы не можете редактировать свои сообщения
Вы не можете удалять свои сообщения
Вы не можете голосовать в опросах
Вы не можете прикреплять файлы к сообщениям
Вы не можете скачивать файлы

!ВНИМАНИЕ!
Сайт не предоставляет электронные версии произведений, а занимается лишь коллекционированием и каталогизацией ссылок, присылаемых и публикуемых на форуме нашими читателями. Если вы являетесь правообладателем какого-либо представленного материала и не желаете, чтобы ссылка на него находилась в нашем каталоге, свяжитесь с нами, и мы незамедлительно удалим ее. Файлы для обмена на трекере предоставлены пользователями сайта, и администрация не несет ответственности за их содержание. Просьба не заливать файлы, защищенные авторскими правами, а также файлы нелегального содержания!