[ Сегодня идет свободное скачивание без начисления Download ]


Статистика раздачи
Качаю: [ 1 ]
 
   
 
Top  
 
 
Лесник (2014) [HDTV - 1080i] (3 сезон, 1-48 серия из 48) - Производство: Россия, Мостелефильм
Жанр: Криминал, Детектив
Режиссер: Виктор Конисевич, Сергей Артимович
Актеры: Олег Штефанко, Анна Большова, Алексей Булдаков, Александр Цуркан, Дарья Повереннова, Полина Рахленко, Владимир Зайцев, Михаил Васьков, Анатолий Котенёв, Юлия Куварзина, Владимир Тимофеев и др.
Описание:
Продолжение сериала о бывшем спецназовце Леониде Зубове, который работает лесником в тайге. В новом сезоне отношения между полюбившимися героями сериала будут развиваться захватывающе. Сивый (Алексей Булдаков) наконец обретет личное счастье: он женится на местной библиотекарше Марии Миловановой (Ирина Аверина). А вот Зубову придется нелегко: он потеряет свою возлюбленную Елену, и его жизнь начнет катиться под откос. Единственная цель, которую будет преследовать Зубов, – это найти убийц любимой женщины и отомстить им. Удастся ли ему это сделать и не превратиться в злодея...

Возраст: 16+ (зрителям, достигшим 16 лет)
Дата российской премьеры: 20 апреля 2015
Продолжительность: ~ 00:45:00 серия
Качество видео: HDTV -1080i
Видео: AVC/H.264, 1920x1080, ~ 10 Мбит/с, 25.000 кадр/с
Аудио: MP2, 2 ch, 256 Кбит/с

Mediainfo:

Формат                                   : MPEG-TS
Размер файла                             : 3,19 Гбайт
Продолжительность                        : 44 м.
Режим общего битрейта                    : Переменный
Общий поток                              : 10,3 Мбит/сек
Видео
Идентификатор                            : 2202 (0x89A)
Идентификатор меню                       : 2201 (0x899)
Формат                                   : AVC
Формат/Информация                        : Advanced Video Codec
Профиль формата                          : High@L4
Параметр CABAC формата                   : Да
Параметр ReFrames формата                : 4 кадра
Идентификатор кодека                     : 27
Продолжительность                        : 44 м.
Битрейт                                  : 9557 Кбит/сек
Ширина                                   : 1920 пикселей
Высота                                   : 1080 пикселей
Соотношение сторон                       : 16:9
Частота кадров                           : 25,000 кадров/сек
Стандарт вещания                         : Component
Цветовое пространство                    : YUV
Субдискретизация насыщенности            : 4:2:0
Битовая глубина                          : 8 бит
Тип развёртки                            : Чересстрочная
Метод сохранения типа развёртки          : Раздельные поля
Порядок развёртки                        : Верхнее поле первое
Бит/(Пиксели*Кадры)                      : 0.184
Размер потока                            : 2,96 Гбайт (93%)
Цветовой диапазон                        : Limited
Основные цвета                           : BT.709
Характеристики трансфера                 : BT.709
Коэффициенты матрицы                     : BT.709
Аудио
Идентификатор                            : 2203 (0x89B)
Идентификатор меню                       : 2201 (0x899)
Формат                                   : MPEG Audio
Версия формата                           : Version 1
Профиль формата                          : Layer 2
Идентификатор кодека                     : 3
Продолжительность                        : 44 м.
Вид битрейта                             : Постоянный
Битрейт                                  : 256 Кбит/сек
Каналы                                   : 2 канала
Частота                                  : 48,0 КГц
Метод сжатия                             : С потерями
Задержка видео                           : -80 мс.
Размер потока                            : 81,1 Мбайт (2%)
Язык                                     : Russian
Скриншоты:

[Цитировать]



Показать сообщения:    

Текущее время: 10-Дек 02:16

Часовой пояс: UTC + 3


Вы не можете начинать темы
Вы не можете отвечать на сообщения
Вы не можете редактировать свои сообщения
Вы не можете удалять свои сообщения
Вы не можете голосовать в опросах
Вы не можете прикреплять файлы к сообщениям
Вы не можете скачивать файлы

!ВНИМАНИЕ!
Сайт не предоставляет электронные версии произведений, а занимается лишь коллекционированием и каталогизацией ссылок, присылаемых и публикуемых на форуме нашими читателями. Если вы являетесь правообладателем какого-либо представленного материала и не желаете, чтобы ссылка на него находилась в нашем каталоге, свяжитесь с нами, и мы незамедлительно удалим ее. Файлы для обмена на трекере предоставлены пользователями сайта, и администрация не несет ответственности за их содержание. Просьба не заливать файлы, защищенные авторскими правами, а также файлы нелегального содержания!